Welcome Guest ( Log In | Register )

 
Reply to this topicStart new topic
> Обрій - Олтар Утопії [ep] (2016), Death/Groove Metal
post Oct 5 2017, 18:05:47
Post #1

Group: Подсевший
Posts: 33
Releases: 20
From: Russia
On Forums: 4 years 11 months
Thanks: 246 time(s)
Russian Federation


(IMG:https://metalarea.org/images/audiocovers/2017_Oct/acov_tid295701_thumb.jpg)

*Artist: Обрій
*Album: Олтар Утопії [ep]
*Year: 2016
*Genre: Death/Groove Metal
*Country: Ukraine (IMG:https://metalarea.org/forum/style_images/flags/Ukraine.png)
*Format: mp3@CBR320kbps
*Size: 41MB

Tracklist:
1. Весь Світ Перед Нами
2. Поля Камбоджі
3. Доторкнутися До Зірок
4. Відголоски Великої Битви
******************************
Total playing time: 17:24



Technical info
(IMG:https://metalarea.org/images/spectrogram/2017_Oct/f29402814a147dfdf376dd82896846d5.png)
Input File: 04 Відголоски Великої битви.mp3
Channels : 2
Sample Rate : 44100
Precision : 16-bit
Duration : 00:04:00.56 = 10608740 samples = 18042.1 CDDA sectors
File Size : 9.78M
Bit Rate : 325k
Sample Encoding: MPEG audio (layer I, II or III)
Comments :
Title=Відголоски Великої битви
Artist=РћР±СЂС–Р№
Album=Олтар Утопії
Tracknumber=4
Year=2016
Genre=9



Register


Go to the top of the page
  Insert nick Quick quote
+Quote Post

Reply to this topicStart new topic
1 User(s) are reading this topic (1 Guests and 0 Anonymous Users)
0 Members:

 



- Lo-Fi Version Support form
Copyrights and abuse reports form
Time is now: 16th January 2022 - 19:26:41