Welcome Guest ( Log In | Register )

Объявления

* gmail.com упорно продолжает считать почту с нас "unsolicited" и отбивает в том числе и письма активации, поэтому просьба использовать альтернативные почтовые ящики.
------------
* gmail.com continues reject all mail from us as "unsolicited" (activation mails too) therefore please use alternate mail servers.
 
Reply to this topicStart new topic
> Pro-Pain - Best Of Pro-Pain [best of/compilation] (1998), Groove Metal/Hardcore/Thrash Metal
post Oct 6 2017, 05:23:10
Post #1

Мегаманьяк
***********
Group: Металариец
Posts: 1,597
Releases: 131
On Forums: 10 years 9 months
Thanks: 4206 time(s)
Unknown


(IMG:http://metalarea.org/images/audiocovers/2017_Oct/acov_tid295715_thumb.jpg)

*Artist: Pro-Pain
*Album: Best Of Pro-Pain [best of/compilation]
*Year: 1998
*Genre: Groove Metal/Hardcore/Thrash Metal
*Country: United States (IMG:http://metalarea.org/forum/style_images/flags/United%20States.png)
*Format: mp3@CBR320kbps
*Size: 125MB

Tracklist:
01. Take It Back (The Lost Track) 2:39
02. Foul Taste Of Freedom 3:42
03. Death On The Dance Floor 2:43
04. Murder 101 2:57
05. Pound For Pound 3:40
06. Johnny Black 3:13
07. Make War Not Love 4:54
08. The Truth Hurts 4:09
09. Switchblade Knife 3:21
10. Put The Lights Out 4:22
11. Denial 3:20
12. Crush 3:11
13. Shine 3:55
14. State Of Mind 4:15
15. Take It Personal (demo) 3:52
******************************
Total playing time: 54:13

Technical info
(IMG:http://metalarea.org/images/spectrogram/2017_Oct/40d1d82dd879acecce9a0fe38f5314c4.png)
Input File: 07 - Make War Not Love.mp3
Channels : 2
Sample Rate : 44100
Precision : 16-bit
Duration : 00:04:54.61 = 12992301 samples = 22095.8 CDDA sectors
File Size : 11.8M
Bit Rate : 320k
Sample Encoding: MPEG audio (layer I, II or III)
Comments :
Title=Make War Not Love
Artist=Pro-Pain
Album=Best Of Pro-Pain
Tracknumber=7
Year=1998
Genre=Hardcore



Register


Go to the top of the page
  Insert nick Quick quote
+Quote Post

Reply to this topicStart new topic
1 User(s) are reading this topic (1 Guests and 0 Anonymous Users)
0 Members:

 



- Lo-Fi Version Support form
Copyrights and abuse reports form
Time is now: 19th July 2024 - 13:55:08