Welcome Guest ( Log In | Register )

Объявления

* gmail.com упорно продолжает считать почту с нас "unsolicited" и отбивает в том числе и письма активации, поэтому просьба использовать альтернативные почтовые ящики.
------------
* gmail.com continues reject all mail from us as "unsolicited" (activation mails too) therefore please use alternate mail servers.
 
Reply to this topicStart new topic
> Pro-Pain - Best Of Pro-Pain II [best of/compilation] (2005), Groove Metal/Hardcore/Thrash Metal
post Oct 6 2017, 05:27:44
Post #1

Мегаманьяк
***********
Group: Металариец
Posts: 1,597
Releases: 131
On Forums: 10 years 9 months
Thanks: 4206 time(s)
Unknown


(IMG:http://metalarea.org/images/audiocovers/2017_Oct/acov_tid295716_thumb.jpg)

*Artist: Pro-Pain
*Album: Best Of Pro-Pain II [best of/compilation]
*Year: 2005
*Genre: Groove Metal/Hardcore/Thrash Metal
*Country: United States (IMG:http://metalarea.org/forum/style_images/flags/United%20States.png)
*Format: mp3@CBR320kbps
*Size: 121MB

Tracklist:
01. Stand Tall 2:43
02. I Remain 2:21
03. In For The Kill 3:09
04. Time Will Tell 3:37
05. Get Real 2:19
06. Don't Kill Yourself To Live 3:33
07. Life's Hard 4:29
08. Smokin' Gun 3:03
09. Gunya Down 4:36
10. Political Suicide 3:35
11. One Man Army 3:10
12. Bad Blood 3:18
13. The Stench Of Piss 3:26
14. God Only Knows 3:27
15. No Way Out (demo) 3:07
16. Shreds Of Dignity (demo) 2:42
******************************
Total playing time: 52:35

Technical info
(IMG:http://metalarea.org/images/spectrogram/2017_Oct/e24dc08d35bd3a7f31e63f22e11a6eb5.png)
Input File: 11 - One Man Army.mp3
Channels : 2
Sample Rate : 44100
Precision : 16-bit
Duration : 00:03:10.32 = 8393068 samples = 14273.9 CDDA sectors
File Size : 7.61M
Bit Rate : 320k
Sample Encoding: MPEG audio (layer I, II or III)
Comments :
Title=One Man Army
Artist=Pro-Pain
Album=Best Of Pro-Pain II
Tracknumber=11
Year=2005
Genre=Hardcore



Register


Go to the top of the page
  Insert nick Quick quote
+Quote Post

Reply to this topicStart new topic
1 User(s) are reading this topic (1 Guests and 0 Anonymous Users)
0 Members:

 



- Lo-Fi Version Support form
Copyrights and abuse reports form
Time is now: 19th July 2024 - 12:14:10