Welcome Guest ( Log In | Register )

Объявления

* gmail.com упорно продолжает считать почту с нас "unsolicited" и отбивает в том числе и письма активации, поэтому просьба использовать альтернативные почтовые ящики.
------------
* gmail.com continues reject all mail from us as "unsolicited" (activation mails too) therefore please use alternate mail servers.
> Coma Cluster Void - Thoughts From A Stone [ep] (2017), Technical Death Metal/Mathcore
post Oct 10 2017, 05:12:26
Post #1

Serial Uploader
Group Icon
Group: V.I.P
Posts: 42,605
Releases: 40671
From: Lithuania
On Forums: 15 years 11 months
Thanks: 521359 time(s)
Lithuania


(IMG:http://metalarea.org/images/audiocovers/2017_Oct/acov_tid295939_thumb.jpg)

*Artist: Coma Cluster Void
*Album: Thoughts From A Stone [ep]
*Year: 2017
*Genre: Technical Death Metal/Mathcore
*Country: United States (IMG:http://metalarea.org/forum/style_images/flags/United%20States.png)
*Format: mp3@CBR320kbps
*Size: 51MB

Tracklist:
01. I Breathe An Awakening
02. The Silence And Gloom
03. Sculpting This Vision
04. Thumb Of Disease
05. Mother, Dreamer
06. We Are As Low
******************************
Total playing time: 21:42




Technical info
(IMG:http://metalarea.org/images/spectrogram/2017_Oct/f2ec0198b61627879ab71419845e8b60.png)
Input File: 02. The Silence and Gloom.mp3
Channels : 2
Sample Rate : 44100
Precision : 16-bit
Duration : 00:02:51.20 = 7549876 samples = 12839.9 CDDA sectors
File Size : 7.15M
Bit Rate : 334k
Sample Encoding: MPEG audio (layer I, II or III)
Comments :
Title=The Silence and Gloom
Artist=Coma Cluster Void
Album=Thoughts from a Stone
Tracknumber=2/6
Year=2017



Register


Go to the top of the page
  Insert nick Quick quote
+Quote Post
 
Start new topic
Replies (1 - 2)
post Oct 11 2017, 07:37:01
Post #2

Два Литра
**
Group: Завсегдатай
Posts: 119
Releases: 0
From: Сыктывкар
On Forums: 6 years 11 months
Thanks: 27 time(s)
Russian Federation


На этот файл поступила жалоба, доступ к нему заблокирован. не могу скачать. перезалейте плиз.


Go to the top of the page
  Insert nick Quick quote
+Quote Post
post Apr 11 2020, 11:08:31
Post #3

Правь статус, ####!111
**************
Group: Металариец
Posts: 4,852
Releases: 41
On Forums: 6 years 6 months
Thanks: 14922 time(s)
Unknown


Register


Thanks:
(1) DasTor777,
Go to the top of the page
  Insert nick Quick quote
+Quote Post

Reply to this topicStart new topic
2 User(s) are reading this topic (2 Guests and 0 Anonymous Users)
0 Members:

 



- Lo-Fi Version Support form
Copyrights and abuse reports form
Time is now: 28th May 2024 - 20:35:41