Welcome Guest ( Log In | Register )

> Galil - Imponiendo Soberanía (2017), Death Metal
post Oct 11 2017, 04:25:26
Post #1

Serial Uploader
Group Icon
Group: V.I.P
Posts: 37,609
Releases: 35781
From: Lithuania
On Forums: 13 years 1 month
Thanks: 433239 time(s)
Lithuania


(IMG:http://metalarea.org/images/audiocovers/2017_Oct/acov_tid295979_thumb.jpg)

*Artist: Galil
*Album: Imponiendo Soberanía
*Year: 2017
*Genre: Death Metal
*Country: Colombia (IMG:http://metalarea.org/forum/style_images/flags/Colombia.png)
*Format: mp3@CBR320kbps
*Size: 35MB

Tracklist:
01. Verdaderos Negativos
02. Galil
03. Clamor Por Muerte
04. Engendro De Guerra
05. Bacrim (Bandas Criminales)
06. Guerra
07. Error
******************************
Total playing time: 15:33



Technical info
(IMG:http://metalarea.org/images/spectrogram/2017_Oct/cf7a5755e267610d1c1f056853e25f57.png)
Input File: 02. Galil.mp3
Channels : 2
Sample Rate : 44100
Precision : 16-bit
Duration : 00:02:22.91 = 6302155 samples = 10718 CDDA sectors
File Size : 5.72M
Bit Rate : 320k
Sample Encoding: MPEG audio (layer I, II or III)
Comments :
Title=Galil
Artist=Galil
Album=Imponiendo SoberanГ­a
Tracknumber=2/7
Year=2017



Register


Go to the top of the page
  Insert nick Quick quote
+Quote Post
 
Start new topic
Replies (1 - 1)
post Oct 11 2017, 11:46:40
Post #2

Morbid Angel
**************
Group: Металариец
Posts: 4,175
Releases: 0
From: Литва г.Клайпеда
On Forums: 14 years 4 months
Thanks: 1813 time(s)
Lithuania




Thanks:
(1) DarkHorde,
Go to the top of the page
  Insert nick Quick quote
+Quote Post

Reply to this topicStart new topic
2 User(s) are reading this topic (2 Guests and 0 Anonymous Users)
0 Members:

 



- Lo-Fi Version Support form
Copyrights and abuse reports form
Time is now: 4th August 2021 - 13:30:21