Welcome Guest ( Log In | Register )

> Det Gamle Besatt - Inter Mundos (2017), Black/Thrash Metal
post Oct 11 2017, 18:46:47
Post #1

Аннигилятор пивА
Group Icon
Group: V.I.P
Posts: 52,360
Releases: 16550
From: Koenigsberg - TILZIT
On Forums: 14 years 4 days
Thanks: 365277 time(s)
Russian Federation


(IMG:https://metalarea.org/images/audiocovers/2017_Oct/acov_tid296007_thumb.jpg)

*Artist: Det Gamle Besatt
*Album: Inter Mundos
*Year: 2017
*Genre: Black/Thrash Metal
*Country: Poland (IMG:https://metalarea.org/forum/style_images/flags/Poland.png)
*Format: mp3@CBR320kbps
*Size: 104MB

Tracklist:
1. Wrota Otchłani 04:45
2. Nowa Era 05:56
3. A Gdyby Tak... 06:39
4. Czarci Zmierzch 04:55
5. Spuścizna 06:28
6. Samozwańczy Bóg 04:52
7. Ewangelia Oświecenia 05:04
8. Zrozpaczona Wdowa 04:39
******************************
Total playing time: 43:18



Extended info
Beldaroh - Bass, Vocals (2012-present)See also: Besatt, Mystes, Hellish
Dertalis - Drums (2012-present) See also: ex-Besatt
Weronis - Guitars, Vocals (2012-present) See also: ex-Besatt


Technical info
(IMG:https://metalarea.org/images/spectrogram/2017_Oct/52456bddc195888bbde4bf215db83125.png)
Input File: 01. Wrota otchtani.mp3
Channels : 2
Sample Rate : 44100
Precision : 16-bit
Duration : 00:04:44.32 = 12538512 samples = 21324 CDDA sectors
File Size : 11.4M
Bit Rate : 320k
Sample Encoding: MPEG audio (layer I, II or III)
Comments :
Title=Det Gamle Besatt / 1. Wrota Otch?ani
Artist=Det Gamle Besatt
Album=Det Gamle Besatt - Inter Mundos
Tracknumber=1/8
Year=2017
Genre=Неизвестно



Register


Go to the top of the page
  Insert nick Quick quote
+Quote Post
 
Start new topic
Replies (1 - 4)
post Oct 11 2017, 21:42:19
Post #2

Аннигилятор пивА
Group Icon
Group: V.I.P
Posts: 52,360
Releases: 16550
From: Koenigsberg - TILZIT
On Forums: 14 years 4 days
Thanks: 365277 time(s)
Russian Federation


mirror
Register




Go to the top of the page
  Insert nick Quick quote
+Quote Post
post Oct 17 2017, 02:34:41
Post #3

Это просто место… где все подошло к концу.
**************
Group: Металариец
Posts: 5,853
Releases: 0
From: Страны Мамонтов
On Forums: 13 years 3 months
Thanks: 2188 time(s)
Antarctica


Вживую лучше звучат, чем на студийной записи (IMG:style_emoticons/default/fear.gif)
Go to the top of the page
  Insert nick Quick quote
+Quote Post
post Oct 26 2017, 17:08:56
Post #4

De Mysteriis Dom Sathanas
**************
Group: Металариец
Posts: 3,954
Releases: 63
From: Doom
On Forums: 11 years 10 months
Thanks: 3354 time(s)
Russian Federation


Вокал все портит - просто шит (IMG:style_emoticons/default/22.gif)
Go to the top of the page
  Insert nick Quick quote
+Quote Post
post Jun 19 2018, 18:34:53
Post #5

Пять Литров
*****
Group: Металариец
Posts: 443
Releases: 0
On Forums: 3 years 10 months
Thanks: 32 time(s)
Unknown


Thrash?? - Avant-Garde Black Metal.
Go to the top of the page
  Insert nick Quick quote
+Quote Post

Reply to this topicStart new topic
1 User(s) are reading this topic (1 Guests and 0 Anonymous Users)
0 Members:

 



- Lo-Fi Version Support form
Copyrights and abuse reports form
Time is now: 1st June 2020 - 12:52:44