Welcome Guest ( Log In | Register )

> Altarage - Endinghent (2017), Black/Death Metal
post Oct 12 2017, 14:07:22
Post #1

Правь статус, ####!111
**************
Group: Металариец
Posts: 35,607
Releases: 26505
From: Г.Харьков
On Forums: 11 years 11 months
Thanks: 572856 time(s)
Ukraine


(IMG:https://metalarea.org/images/audiocovers/2017_Oct/acov_tid296060_thumb.jpg)

*Artist: Altarage
*Album: Endinghent
*Year: 2017
*Genre: Black/Death Metal
*Country: Spain (IMG:https://metalarea.org/forum/style_images/flags/Spain.png)
*Format: mp3@CBR320kbps
*Size: 78MB

Tracklist:
1. Incessant Magma 05:58
2. Spearheaderon 03:56
3. Cataclysmic Triada 03:33
4. Fold Eksis 03:03
5. Rift 04:56
6. Orb Terrax 04:06
7. Weighteer 06:31
8. Barrier 04:38
******************************
Total playing time: 36:41



Technical info
(IMG:https://metalarea.org/images/spectrogram/2017_Oct/98d832c5520a50403f119b4721a59c49.png)
Input File: 2 Spearheaderon.mp3
Channels : 2
Sample Rate : 44100
Precision : 16-bit
Duration : 00:03:56.30 = 10420918 samples = 17722.6 CDDA sectors
File Size : 9.53M
Bit Rate : 323k
Sample Encoding: MPEG audio (layer I, II or III)
Comments :
Title=Spearheaderon
Artist=Altarage
Album=Endinghent
Tracknumber=2/8
Year=2017
Genre=9
Discnumber=1/1



Register


Go to the top of the page
  Insert nick Quick quote
+Quote Post
 
Start new topic
Replies (1 - 5)
post Oct 12 2017, 16:34:24
Post #2

Правь статус, ####!111
**************
Group: Металариец
Posts: 35,607
Releases: 26505
From: Г.Харьков
On Forums: 11 years 11 months
Thanks: 572856 time(s)
Ukraine


Register


Go to the top of the page
  Insert nick Quick quote
+Quote Post
post May 23 2018, 23:01:55
Post #3

Правь статус, ####!111
**************
Group: Металариец
Posts: 4,815
Releases: 26
From: Holland
On Forums: 17 years 9 months
Thanks: 1901 time(s)
Netherlands


Ниче такая, модная вещь. Но приедается довольно скоро.
Go to the top of the page
  Insert nick Quick quote
+Quote Post
post Jun 22 2018, 20:40:53
Post #4

Black is beautiful
***********
Group: Металариец
Posts: 1,980
Releases: 4
On Forums: 12 years 1 month
Thanks: 445 time(s)
Unknown


Horny, they torture her guitars! (IMG:style_emoticons/default/true_black.gif) (IMG:style_emoticons/default/true_black.gif) (IMG:style_emoticons/default/true_black.gif)


Thanks:
(1) Mencae77,
Go to the top of the page
  Insert nick Quick quote
+Quote Post
post Apr 9 2019, 01:38:18
Post #5

Правь статус, ####!111
**************
Group: Металариец
Posts: 8,723
Releases: 197
From: HELL
On Forums: 17 years 6 months
Thanks: 30240 time(s)
Uruguay


320
Register


Go to the top of the page
  Insert nick Quick quote
+Quote Post
post Sep 21 2023, 15:40:43
Post #6

Девять Литров
*********
Group: Металариец
Posts: 945
Releases: 17
From: Brasil - Sao Paulo
On Forums: 3 years 11 months
Thanks: 924 time(s)
Brazil


FlAc -
Register


Thanks:
Go to the top of the page
  Insert nick Quick quote
+Quote Post

Reply to this topicStart new topic
2 User(s) are reading this topic (2 Guests and 0 Anonymous Users)
0 Members:

 



- Lo-Fi Version Support form
Copyrights and abuse reports form
Time is now: 19th April 2024 - 22:35:00