Welcome Guest ( Log In | Register )

> Voodus - Serpent Seducer Saviour [ep] (2017), Black Metal
post Oct 22 2017, 09:07:40
Post #1

Serial Uploader
Group Icon
Group: V.I.P
Posts: 37,603
Releases: 35775
From: Lithuania
On Forums: 13 years 2 weeks
Thanks: 432866 time(s)
Lithuania


(IMG:http://metalarea.org/images/audiocovers/2017_Oct/acov_tid296549_thumb.jpg)

*Artist: Voodus
*Album: Serpent Seducer Saviour [ep]
*Year: 2017
*Genre: Black Metal
*Country: Sweden (IMG:http://metalarea.org/forum/style_images/flags/Sweden.png)
*Format: mp3@CBR320kbps
*Size: 44MB

Tracklist:
01. Path of Hekate
02. Flesh Into Spirit
******************************
Total playing time: 19:13



Technical info
(IMG:http://metalarea.org/images/spectrogram/2017_Oct/799f31e2cfc9912fe7765cfdbde6e628.png)
Input File: 02. Flesh Into Spirit.mp3
Channels : 2
Sample Rate : 44100
Precision : 16-bit
Duration : 00:12:31.98 = 33162406 samples = 56398.6 CDDA sectors
File Size : 30.1M
Bit Rate : 320k
Sample Encoding: MPEG audio (layer I, II or III)
Comments :
Title=Flesh Into Spirit
Artist=Voodus
Album=Serpent Seducer Saviour
Tracknumber=2/2
Year=2017



Register


Go to the top of the page
  Insert nick Quick quote
+Quote Post
 
Start new topic
Replies (1 - 7)
post Oct 24 2017, 18:13:48
Post #2

Мегаманьяк
***********
Group: Металариец
Posts: 1,598
Releases: 25
From: Spain
On Forums: 13 years 9 months
Thanks: 1346 time(s)
Spain


QUOTE
Go to the top of the page
  Insert nick Quick quote
+Quote Post
post Aug 13 2018, 18:46:01
Post #3
BAN
Banned till
Jun 20 2038, 18:19:39



сами знаете откуда
Register


убийственный кайф


Go to the top of the page
  Insert nick Quick quote
+Quote Post
post Nov 25 2018, 10:08:15
Post #4

дьявол воплоти
**********
Group: Металариец
Posts: 1,070
Releases: 7
On Forums: 10 years 9 months
Thanks: 1402 time(s)
Ukraine


полноформатником в качестве никто не разжился, друзья?
я послушал его на бандкампфе и по-доброму о#уел.
Go to the top of the page
  Insert nick Quick quote
+Quote Post
post May 31 2019, 14:03:50
Post #5

Common dweller of hell
**************
Group: Металариец
Posts: 3,829
Releases: 12
From: Dnipro
On Forums: 12 years 11 months
Thanks: 1507 time(s)
Ukraine


ЦИТАТА(tormoz @ Nov 25 2018, 12:08:15) *
полноформатником в качестве никто не разжился, друзья?
я послушал его на бандкампфе и по-доброму о#уел.
У них 7 июня новый выходит, но любого альбома ихнего в лосслесс нигде нет((((((
Go to the top of the page
  Insert nick Quick quote
+Quote Post
post Apr 12 2020, 19:44:36
Post #6

Пять Литров
*****
Group: Металариец
Posts: 401
Releases: 4
On Forums: 12 years 3 months
Thanks: 771 time(s)
Serbia


Anyone have this CD (Serpent Seducer Saviour / NightQueen)? https://www.discogs.com/Voodus-Serpent-Sedu...elease/12168809

320kbps please.
Go to the top of the page
  Insert nick Quick quote
+Quote Post
post May 2 2020, 11:49:04
Post #7

Правь статус, ####!111
**************
Group: Металариец
Posts: 4,871
Releases: 379
From: MoscoW
On Forums: 14 years 6 months
Thanks: 6394 time(s)
Russian Federation


Go to the top of the page
  Insert nick Quick quote
+Quote Post
post May 8 2021, 00:08:26
Post #8

Правь статус, ####!111
**************
Group: Металариец
Posts: 7,377
Releases: 165
From: URUGUAY
On Forums: 14 years 8 months
Thanks: 21805 time(s)
Uruguay


Voodus - Serpent Seducer Saviour (Compilation) (2018) [320]
Register


Thanks:
(1) milosdjor,
Go to the top of the page
  Insert nick Quick quote
+Quote Post

Reply to this topicStart new topic
2 User(s) are reading this topic (2 Guests and 0 Anonymous Users)
0 Members:

 



- Lo-Fi Version Support form
Copyrights and abuse reports form
Time is now: 22nd June 2021 - 01:44:21