Welcome Guest ( Log In | Register )

 
Reply to this topicStart new topic
> Catacombed - Kur Soundscape (2017), Drone/Doom Metal (D6)
post Oct 27 2017, 19:04:49
Post #1

Правь статус, ####!111
**************
Group: Металариец
Posts: 5,199
Releases: 4772
From: Одесса
On Forums: 14 years 1 month
Thanks: 56081 time(s)
Ukraine


(IMG:http://metalarea.org/images/audiocovers/2017_Oct/acov_tid296815_thumb.jpg)

*Artist: Catacombed
*Album: Kur Soundscape
*Year: 2017
*Genre: Drone/Doom Metal
*Country: France (IMG:http://metalarea.org/forum/style_images/flags/France.png)
*Format: mp3@CBR320kbps
*Size: 90MB

Tracklist:
1. Kur Soundscape 38:18
******************************
Total playing time: 38:18



Extended info
Line - up:

Hangsvart - Everything (Abysmal Growls of Despair, Ancient Lament, Arrant Saudade, Hangvart, Plagueprayer, Ursus Horribilis)

(IMG:https://f4.bcbits.com/img/0007744768_10.jpg)


Technical info
(IMG:http://metalarea.org/images/spectrogram/2017_Oct/ef602e17ca8e510c43e6e3576b6c56d7.png)
Input File: 01. Kur Soundscape.mp3
Channels : 2
Sample Rate : 48000
Precision : 16-bit
Duration : 00:38:18.55 = 110330640 samples ~ 172392 CDDA sectors
File Size : 92.0M
Bit Rate : 320k
Sample Encoding: MPEG audio (layer I, II or III)
Comments :
Title=Kur Soundscape
Artist=Catacombed
Album=Kur Soundscape
Tracknumber=1
Year=2017
Genre=Drone / Doom Metal



Register


Go to the top of the page
  Insert nick Quick quote
+Quote Post

Reply to this topicStart new topic
1 User(s) are reading this topic (1 Guests and 0 Anonymous Users)
0 Members:

 



- Lo-Fi Version Support form
Copyrights and abuse reports form
Time is now: 5th July 2022 - 16:22:58