Welcome Guest ( Log In | Register )

Объявления

* gmail.com упорно продолжает считать почту с нас "unsolicited" и отбивает в том числе и письма активации, поэтому просьба использовать альтернативные почтовые ящики.
------------
* gmail.com continues reject all mail from us as "unsolicited" (activation mails too) therefore please use alternate mail servers.
> Son Ov Leviathan - Vi Veri Vniversum Vivus Vici (2017), Blackened Death Metal
post Nov 6 2017, 10:47:56
Post #1

Маньяк
**********
Group: Металариец
Posts: 1,115
Releases: 940
From: Новороссийск
On Forums: 13 years 1 month
Thanks: 18888 time(s)
Russian Federation


(IMG:https://metalarea.org/images/audiocovers/2017_Nov/acov_tid297331_thumb.jpg)

*Artist: Son Ov Leviathan
*Album: Vi Veri Vniversum Vivus Vici
*Year: 2017
*Genre: Blackened Death Metal
*Country: United States (IMG:https://metalarea.org/forum/style_images/flags/United%20States.png)
*Format: mp3@CBR320kbps
*Size: 120MB

Tracklist:
01. Benevolence For The Antichrists Benedictions 04:46
02. Iniquitous Possession Within The Godless Labyrinths Ov Impiety 06:03
03. Apocalyptic Holocaustal Obsolescence, Curse Ov The Tail-Eaters 07:01
04. The Ineffable Strength Ov Conquering Will And Blasphemous Malediction 05:38
05. Profane Elegy Upon The Defiled Grave Ov Humanity 08:19
06. Wielder Ov Mystic Sorcery That Binds The Quintessential Cosmos 06:24
07. Vi Veri Vniversum Vivus Vici 04:28
08. Invoking The Anthropocene Dystopia (Part I) 02:01
09. Unholy Accountability For The Benighted Crusaders Ov Wickedness (Part II) 04:29
10. Funerary Hymn Amidst The Devils Howling Tempest 03:11
******************************
Total playing time: 52:27




Technical info
(IMG:https://metalarea.org/images/spectrogram/2017_Nov/07a3ad36671c6d56251bd86299887708.png)
Input File: 01 Benevolence for the Antichrists Benedictions.mp3
Channels : 2
Sample Rate : 44100
Precision : 16-bit
Duration : 00:04:46.28 = 12624904 samples = 21470.9 CDDA sectors
File Size : 11.5M
Bit Rate : 320k
Sample Encoding: MPEG audio (layer I, II or III)
Comments :
Title=Benevolence for the Antichrists Benedictions
Artist=Son ov Leviathan
Album=Vi Veri Vniversum Vivus Vici
Tracknumber=01
Year=2017
Genre=Death Metal



Register


Go to the top of the page
  Insert nick Quick quote
+Quote Post
 
Start new topic
Replies (1 - 1)
post Jan 5 2018, 09:51:29
Post #2

i listen to black metal
**************
Group: Металариец
Posts: 4,092
Releases: 150
From: Москва
On Forums: 17 years 6 months
Thanks: 2629 time(s)
Russian Federation


ах,сатанисты- молодцы!!!
зажгли)))
Go to the top of the page
  Insert nick Quick quote
+Quote Post

Reply to this topicStart new topic
1 User(s) are reading this topic (1 Guests and 0 Anonymous Users)
0 Members:

 



- Lo-Fi Version Support form
Copyrights and abuse reports form
Time is now: 24th June 2024 - 07:26:17