Welcome Guest ( Log In | Register )

> И неформату есть предел.

Рэп/хип-хоп/шансон/поп удаляются. Для них есть свои порталы.

 
Reply to this topicStart new topic
> Weekend Nachos - Still (2013), Grindcore/Powerviolence/Sludge/Crust (D5)
post Nov 8 2017, 07:47:20
Post #1

Три Литра
***
Group: Завсегдатай
Posts: 231
Releases: 17
On Forums: 10 years 7 months
Thanks: 409 time(s)
United States


(IMG:http://metalarea.org/images/audiocovers/2017_Nov/acov_tid297433_thumb.jpg)

*Artist: Weekend Nachos
*Album: Still
*Year: 2013
*Genre: Grindcore/Powerviolence/Sludge/Crust
*Country: United States (IMG:http://metalarea.org/forum/style_images/flags/United%20States.png)
*Format: mp3@CBR320kbps
*Size: 48MB

Tracklist:
1. Sickened No More 00:44
2. No Idols and No Heroes 01:41
3. S.C.A.B. 01:35
4. Satan Sucker 01:32
5. Late Night Walks 01:00
6. Watch You Suffer 03:25
7. Wolves 01:42
8. You're Not Punk 00:57
9. Ignore 01:35
10. Yes Way 01:47
11. Broken Mirror 01:41
12. Still 03:51
******************************
Total playing time: 21:30



Technical info
(IMG:http://metalarea.org/images/spectrogram/2017_Nov/2d4129bee1c544d9ab3f7d8c7b6dfd94.png)
Input File: 01 Sickened No More.mp3
Channels : 2
Sample Rate : 44100
Precision : 16-bit
Duration : 00:00:43.52 = 1919188 samples = 3263.93 CDDA sectors
File Size : 2.00M
Bit Rate : 368k
Sample Encoding: MPEG audio (layer I, II or III)
Comments :
Title=Sickened No More
Artist=Weekend Nachos
Album=Still
Tracknumber=1/12
Year=2013
Genre=Hardcore
Discnumber=1/1



Register


Go to the top of the page
  Insert nick Quick quote
+Quote Post

Reply to this topicStart new topic
1 User(s) are reading this topic (1 Guests and 0 Anonymous Users)
0 Members:

 



- Lo-Fi Version Support form
Copyrights and abuse reports form
Time is now: 22nd September 2020 - 09:13:10