Welcome Guest ( Log In | Register )

Объявления

* gmail.com упорно продолжает считать почту с нас "unsolicited" и отбивает в том числе и письма активации, поэтому просьба использовать альтернативные почтовые ящики.
------------
* gmail.com continues reject all mail from us as "unsolicited" (activation mails too) therefore please use alternate mail servers.
> Brake Fluid Injection & Embedded Flesh - Of Flesh And Fluid [split] (2017), Brutal Death Metal/Goregrind | Goregrind (D4)(D8)
post Nov 8 2017, 15:43:03
Post #1

Serial Uploader
Group Icon
Group: V.I.P
Posts: 42,601
Releases: 40667
From: Lithuania
On Forums: 15 years 11 months
Thanks: 521230 time(s)
Lithuania


(IMG:https://metalarea.org/images/audiocovers/2017_Nov/acov_tid297449_thumb.jpg)

*Artist: Brake Fluid Injection & Embedded Flesh
*Album: Of Flesh And Fluid [split]
*Year: 2017
*Genre: Brutal Death Metal/Goregrind | Goregrind
*Country: United States (IMG:https://metalarea.org/forum/style_images/flags/United%20States.png) | United States (IMG:https://metalarea.org/forum/style_images/flags/United%20States.png)
*Format: mp3@CBR320kbps
*Size: 68MB

Tracklist:
Brake Fluid Injection:
01. McGregor Is A Fookin Coont, M8 (Feat. Ben Warren) 01:34
02. The Big Baller Brand Makes Me Want To Gouge My Eyes Out 00:59
03. Odell Beckham Jr. Had A Nice Catch Once 00:53
04. ESPN’s Ridiculous Lack Of MLB Coverage 00:54
05. Maria Sharapova Can Thwap My Tennis Balls Around Any Day 01:15
06. The 2008 Detroit Lions 01:13
07. Soccer Is OK, I Guess 01:21
08. Tim Tebow Had Celibacy For Breakfast This Morning 01:27
09. Joey Chestnut Is An American Hero 01:04
10. Nose Picking Will Be An Olympic Sport In Ten Years 01:31
Embedded Flesh:
11. Welcome (Intro) 01:14
12. The Guide To Suicide 00:25
13. Crushing Helm 00:26
14. Water Boys 00:46
15. Bother 00:51
16. Let It Slide 01:42
17. Suppression 00:08
18. The Grape Conspiracy 00:26
19. Fallen Onto Bricks 01:34
20. All The Things I Never Said 00:47
21. Mom, I Wish I Was Dead 01:02
22. Portrait Of Uncle Rick 00:14
23. Return To Despair 01:03
24. The Knife Of Never Letting Go 00:35
25. It’s Too Dark! 01:25
26. Regret 01:14
27. Finishing Off Weak 01:04
******************************
Total playing time: 27:07



(IMG:https://metalarea.org/images/youtube.png)

Technical info
(IMG:https://metalarea.org/images/spectrogram/2017_Nov/98d3487fd9931661fa61d135f23398c2.png)
Input File: 02. The Big Baller Brand Makes Me Want to Gouge My Eyes Out.mp3
Channels : 2
Sample Rate : 44100
Precision : 16-bit
Duration : 00:00:59.64 = 2630256 samples = 4473.22 CDDA sectors
File Size : 2.61M
Bit Rate : 350k
Sample Encoding: MPEG audio (layer I, II or III)
Comments :
Title=The Big Baller Brand Makes Me Want to Gouge My Eyes Out
Artist=Brake Fluid Injection
Album="Of Flesh and Fluid" Split w/ Embedded Flesh (NOISE ERA)
Tracknumber=2
Year=2017



Register


Go to the top of the page
  Insert nick Quick quote
+Quote Post
 
Start new topic
Replies (1 - 7)
post Oct 25 2022, 02:42:26
Post #2

Split Backup Copy
**************
Group: Металариец
Posts: 5,580
Releases: 243
From: с. Мизоново, Ишимский Район, Тюменская область
On Forums: 16 years 5 months
Thanks: 4116 time(s)
Russian Federation


Reupload please
Go to the top of the page
  Insert nick Quick quote
+Quote Post
post Jan 16 2023, 10:09:09
Post #3

Split Backup Copy
**************
Group: Металариец
Posts: 5,580
Releases: 243
From: с. Мизоново, Ишимский Район, Тюменская область
On Forums: 16 years 5 months
Thanks: 4116 time(s)
Russian Federation


Перезалейте, пожалуйста
Go to the top of the page
  Insert nick Quick quote
+Quote Post
post Mar 11 2023, 08:32:21
Post #4

Split Backup Copy
**************
Group: Металариец
Posts: 5,580
Releases: 243
From: с. Мизоново, Ишимский Район, Тюменская область
On Forums: 16 years 5 months
Thanks: 4116 time(s)
Russian Federation


Reupload please
Go to the top of the page
  Insert nick Quick quote
+Quote Post
post Jun 1 2023, 03:05:46
Post #5

Split Backup Copy
**************
Group: Металариец
Posts: 5,580
Releases: 243
From: с. Мизоново, Ишимский Район, Тюменская область
On Forums: 16 years 5 months
Thanks: 4116 time(s)
Russian Federation


Перезалейте, пожалуйста
Go to the top of the page
  Insert nick Quick quote
+Quote Post
post Aug 18 2023, 04:55:17
Post #6

Split Backup Copy
**************
Group: Металариец
Posts: 5,580
Releases: 243
From: с. Мизоново, Ишимский Район, Тюменская область
On Forums: 16 years 5 months
Thanks: 4116 time(s)
Russian Federation


Reupload please
Go to the top of the page
  Insert nick Quick quote
+Quote Post
post Nov 6 2023, 05:59:10
Post #7

Split Backup Copy
**************
Group: Металариец
Posts: 5,580
Releases: 243
From: с. Мизоново, Ишимский Район, Тюменская область
On Forums: 16 years 5 months
Thanks: 4116 time(s)
Russian Federation


Перезалейте, пожалуйста
Go to the top of the page
  Insert nick Quick quote
+Quote Post
post Nov 6 2023, 13:48:07
Post #8

Четыре Литра
****
Group: Металариец
Posts: 352
Releases: 0
From: Нижегородская обл.
On Forums: 17 years 8 months
Thanks: 377 time(s)
Russian Federation


ЦИТАТА(Lanceatum @ 6th November 2023 - 07:59:10) *
Перезалейте, пожалуйста

Register


Thanks:
Go to the top of the page
  Insert nick Quick quote
+Quote Post

Reply to this topicStart new topic
2 User(s) are reading this topic (2 Guests and 0 Anonymous Users)
0 Members:

 



- Lo-Fi Version Support form
Copyrights and abuse reports form
Time is now: 26th May 2024 - 09:37:16