Welcome Guest ( Log In | Register )

> Jupiterian - Terraforming (2017), Atmospheric Doom/Death Metal/Sludge
post Nov 8 2017, 18:01:20
Post #1

Аннигилятор пивА
Group Icon
Group: V.I.P
Posts: 52,360
Releases: 16550
From: Koenigsberg - TILZIT
On Forums: 15 years 2 months
Thanks: 367938 time(s)
Russian Federation


(IMG:https://metalarea.org/images/audiocovers/2017_Nov/acov_tid297455_thumb.jpg)

*Artist: Jupiterian
*Album: Terraforming
*Year: 2017
*Genre: Atmospheric Doom/Death Metal/Sludge
*Country: Brazil (IMG:https://metalarea.org/forum/style_images/flags/Brazil.png)
*Format: mp3@CBR320kbps
*Size: 89MB

Tracklist:
01. Matriarch 07:20
02. Unearthly Glow 07:54
03. Forefathers 06:13
04. Terraforming 03:47
05. Us and Them 07:11
06. Sol 06:18
******************************
Total playing time: 38:43



Extended info
G - Drums
R - Bass
V - Voices, Guitars, Percussions, Synths
A - Guitars


Technical info
(IMG:https://metalarea.org/images/spectrogram/2017_Nov/51524e6738091d150957b1533da07329.png)
Input File: 03 Forefathers.mp3
Channels : 2
Sample Rate : 44100
Precision : 16-bit
Duration : 00:06:13.93 = 16490093 samples = 28044.4 CDDA sectors
File Size : 15.1M
Bit Rate : 322k
Sample Encoding: MPEG audio (layer I, II or III)
Comments :
Title=Forefathers
Artist=JUPITERIAN
Album=Terraforming
Tracknumber=03
Year=2017



Register


Go to the top of the page
  Insert nick Quick quote
+Quote Post
 
Start new topic
Replies (1 - 5)
post Nov 8 2017, 20:56:15
Post #2

Аннигилятор пивА
Group Icon
Group: V.I.P
Posts: 52,360
Releases: 16550
From: Koenigsberg - TILZIT
On Forums: 15 years 2 months
Thanks: 367938 time(s)
Russian Federation


mirror
Register


Thanks:
Go to the top of the page
  Insert nick Quick quote
+Quote Post
post Jan 12 2018, 14:58:08
Post #3

Crush! Kill! Destroy!
**************
Group: Металариец
Posts: 5,686
Releases: 15
From: Kaliningrad
On Forums: 13 years 8 months
Thanks: 5406 time(s)
Russian Federation


Давненько меня от этого стиля так не штырило. Хотя я его уже почти не слушаю - может из-за этого, но хочется надеяться, что альбомус и в самом деле офигенный.
Go to the top of the page
  Insert nick Quick quote
+Quote Post
post Jan 14 2019, 17:36:53
Post #4

Group: Подсевший
Posts: 20
Releases: 0
On Forums: 3 years 9 months
Thanks: 2 time(s)
United States


Reup please?


Thanks:
(2) pu55y, Sorc,
Go to the top of the page
  Insert nick Quick quote
+Quote Post
post Jun 19 2020, 07:32:34
Post #5

Кожаный ублюдок
**************
Group: Металариец
Posts: 3,343
Releases: 6
From: Алчевск (early) Некросибирск (now)
On Forums: 12 years 2 months
Thanks: 2241 time(s)
Russian Federation


ЦИТАТА(StarlessAeonIX @ Jan 14 2019, 19:36:53) *
Reup please?

+1
Go to the top of the page
  Insert nick Quick quote
+Quote Post
post Jun 19 2020, 09:08:14
Post #6

ME[ta]LLOMAN
**************
Group: Металариец
Posts: 5,009
Releases: 3
From: Avdeyevka
On Forums: 15 years 3 months
Thanks: 2060 time(s)
Honduras


Register
(IMG:style_emoticons/default/bye.gif)


Go to the top of the page
  Insert nick Quick quote
+Quote Post

Reply to this topicStart new topic
1 User(s) are reading this topic (1 Guests and 0 Anonymous Users)
0 Members:

 



- Lo-Fi Version Support form
Copyrights and abuse reports form
Time is now: 28th July 2021 - 14:48:46