Welcome Guest ( Log In | Register )

> ExCxSx & Diskonekcija & Putrido & Fekal Propulsion & Porno Fart & Goregrind Party - 6 Fluidos Fermentados De Pestilencia Auditiva [split] (2017), Goregrind/Pornogrind/Noisegrind
post Nov 15 2017, 16:12:03
Post #1

Serial Uploader
Group Icon
Group: V.I.P
Posts: 37,884
Releases: 36046
From: Lithuania
On Forums: 13 years 5 months
Thanks: 439344 time(s)
Lithuania


(IMG:https://metalarea.org/images/audiocovers/2017_Nov/acov_tid297877_thumb.jpg)

*Artist: ExCxSx & Diskonekcija & Putrido & Fekal Propulsion & Porno Fart & Goregrind Party
*Album: 6 Fluidos Fermentados De Pestilencia Auditiva [split]
*Year: 2017
*Genre: Goregrind/Pornogrind/Noisegrind
*Country: Many (IMG:https://metalarea.org/forum/style_images/flags/Many.png)
*Format: mp3@CBR320kbps
*Size: 100MB

Tracklist:
ExCxSx:
01. Masturbating Asian Shemale Kneads Small Breats 01:07
02. Shemale Cum-Bath 01:11
03. Shemale Paradise 01:31
04. Untitled Track 4 01:03
Diskonekcija:
05. Kako 01:35
06. Pileci Mozgovi 01:53
07. Svi 01:59
08. Fotelje 01:54
Putrido:
09. Buffet Anal 02:37
10. Fofo Bukkake 01:03
11. Patologo Obsceno 02:13
12. Sale Mierda 01:43
Fekal Propulsion:
13. Anal Cavity Introduction 01:21
14. Carnicero Necrofilico 02:13
15. Cleptomania Coprofagica 01:42
16. Yo Soy Tu Vater 01:25
Porno Fart:
17. The Pig-Man's Borning 01:42
18. Fuck This, Fuck That 00:55
19. I Pig, I Hate 01:55
20. Fuck Your Sex Rules! 00:46
Goregrind Party:
21. Nito Neto Cobra (RDES) Y Varios Amiguitos Fugaron Por La Puertra Tracera Del Nuclear Bar Despues De Darles Una Puta Paliza 02:29
22. Diarreica Explosion 02:04
23. Indigestible Alcholizacion 02:15
24. Repugante Bastardo, Homofobico, Racista, Misogino, Machista, Un Excremento Vale 100 Veces Mas Que Tu Puta Existencia 02:28
******************************
Total playing time: 41:04









Technical info
(IMG:https://metalarea.org/images/spectrogram/2017_Nov/a8329be27a878bf2c79e46e44b653ccf.png)
Input File: 02. Shemale Cum-Bath.mp3
Channels : 2
Sample Rate : 44100
Precision : 16-bit
Duration : 00:01:11.43 = 3149843 samples = 5356.88 CDDA sectors
File Size : 3.10M
Bit Rate : 347k
Sample Encoding: MPEG audio (layer I, II or III)
Comments :
Title=ExCxSx - Shemale Cum-Bath
Artist=V.A
Album=6 Fluidos Fermentados de Pestilencia Auditiva
Tracknumber=2
Year=2017



Register


This post has been edited by necroscum: Dec 4 2017, 15:42:12


Thanks:
Go to the top of the page
  Insert nick Quick quote
+Quote Post
 
Start new topic
Replies (1 - 6)
post Jul 30 2018, 10:48:20
Post #2

Мегаманьяк
***********
Group: Металариец
Posts: 1,547
Releases: 0
From: Санкт-Петербург
On Forums: 10 years 9 months
Thanks: 31 time(s)
Russian Federation


перезалей плиз)
Go to the top of the page
  Insert nick Quick quote
+Quote Post
post Jan 25 2020, 14:55:08
Post #3

Split Backup Copy
**************
Group: Металариец
Posts: 5,383
Releases: 243
From: с. Мизоново, Ишимский Район, Тюменская область
On Forums: 13 years 11 months
Thanks: 3812 time(s)
Russian Federation


Reupload please
Go to the top of the page
  Insert nick Quick quote
+Quote Post
post Apr 2 2020, 21:50:29
Post #4

Split Backup Copy
**************
Group: Металариец
Posts: 5,383
Releases: 243
From: с. Мизоново, Ишимский Район, Тюменская область
On Forums: 13 years 11 months
Thanks: 3812 time(s)
Russian Federation


Перезалейте, пожалуйста
Go to the top of the page
  Insert nick Quick quote
+Quote Post
post Jun 20 2020, 22:09:03
Post #5

Split Backup Copy
**************
Group: Металариец
Posts: 5,383
Releases: 243
From: с. Мизоново, Ишимский Район, Тюменская область
On Forums: 13 years 11 months
Thanks: 3812 time(s)
Russian Federation


Reupload please
Go to the top of the page
  Insert nick Quick quote
+Quote Post
post Aug 28 2020, 10:27:42
Post #6

Split Backup Copy
**************
Group: Металариец
Posts: 5,383
Releases: 243
From: с. Мизоново, Ишимский Район, Тюменская область
On Forums: 13 years 11 months
Thanks: 3812 time(s)
Russian Federation


Перезалейте, пожалуйста
Go to the top of the page
  Insert nick Quick quote
+Quote Post
post Aug 28 2020, 12:37:18
Post #7

A.M.S.G.
**************
Group: Металариец
Posts: 2,704
Releases: 52
From: Sitra Achra
On Forums: 13 years 7 months
Thanks: 1696 time(s)
Unknown


QUOTE(Lanceatum @ Aug 28 2020, 12:27:42) *
Перезалейте, пожалуйста


Register


This post has been edited by Borderline1991: Aug 29 2020, 07:06:50
Reason for edit: hide


Thanks:
Go to the top of the page
  Insert nick Quick quote
+Quote Post

Reply to this topicStart new topic
2 User(s) are reading this topic (2 Guests and 0 Anonymous Users)
0 Members:

 



- Lo-Fi Version Support form
Copyrights and abuse reports form
Time is now: 27th November 2021 - 00:18:35