Welcome Guest ( Log In | Register )

> Symphony Of Heaven - The Season Of Death (2017), Symphonic Death Metal
post Nov 23 2017, 15:01:10
Post #1

Аннигилятор пивА
Group Icon
Group: V.I.P
Posts: 52,360
Releases: 16550
From: Koenigsberg - TILZIT
On Forums: 15 years 3 months
Thanks: 368187 time(s)
Russian Federation


(IMG:https://metalarea.org/images/audiocovers/2017_Nov/acov_tid298322_thumb.jpg)

*Artist: Symphony Of Heaven
*Album: The Season Of Death
*Year: 2017
*Genre: Symphonic Death Metal
*Country: United States (IMG:https://metalarea.org/forum/style_images/flags/United%20States.png)
*Format: mp3@CBR320kbps
*Size: 99MB

Tracklist:
01. Stratagem
02. War In The Wind
03. Anno Domini
04. In Anger's Midst
05. The Meditation Of My Heart
06. Of Scars and Soil
07. Come and Rest
08. Time Transcending
******************************
Total playing time: 46:52




Technical info
(IMG:https://metalarea.org/images/spectrogram/2017_Nov/7e9b4f7ac6e3c2826a613d4fdb676450.png)
Input File: 02. War In The Wind.mp3
Channels : 2
Sample Rate : 44100
Precision : 16-bit
Duration : 00:08:07.70 = 21507658 samples = 36577.6 CDDA sectors
File Size : 19.6M
Bit Rate : 321k
Sample Encoding: MPEG audio (layer I, II or III)
Comments :
Title=War In The Wind
Artist=Symphony of Heaven
Album=The Season of Death
Tracknumber=02/08
Year=2017
Discnumber=1/1



Register


Go to the top of the page
  Insert nick Quick quote
+Quote Post
 
Start new topic
Replies (1 - 1)
post Nov 24 2017, 08:33:05
Post #2

hearer & reader
**************
Group: Металариец
Posts: 9,876
Releases: 173
From: Moscow
On Forums: 14 years 2 weeks
Thanks: 11200 time(s)
Russian Federation


Уан-мэн-проджект с христианским мессаджем (IMG:style_emoticons/default/15.gif)
Go to the top of the page
  Insert nick Quick quote
+Quote Post

Reply to this topicStart new topic
1 User(s) are reading this topic (1 Guests and 0 Anonymous Users)
0 Members:

 



- Lo-Fi Version Support form
Copyrights and abuse reports form
Time is now: 25th September 2021 - 00:30:11