Welcome Guest ( Log In | Register )

 
Reply to this topicStart new topic
> Ashen Chalice - Kada Postanemo Pepeo, Kada Prihvatimo Smrt [demo] (2017), Raw Black Metal/Ambient
post Nov 24 2017, 02:50:26
Post #1

Правь статус, 616
**************
Group: Металариец
Posts: 7,221
Releases: 5651
From: 55°35’N 38°08’E
On Forums: 13 years 4 months
Thanks: 104088 time(s)
Unknown


(IMG:http://metalarea.org/images/audiocovers/2017_Nov/acov_tid298356_thumb.jpg)

*Artist: Ashen Chalice
*Album: Kada Postanemo Pepeo, Kada Prihvatimo Smrt [demo]
*Year: 2017
*Genre: Raw Black Metal/Ambient
*Country: Croatia (IMG:http://metalarea.org/forum/style_images/flags/Croatia.png)
*Format: mp3@CBR320kbps
*Size: 56MB

Tracklist:
1.Mjesec i Pepeo 01:31
2.Disonantna Jeka Iz Dvorane Leševa 07:06
3.Snovi u Vještičinoj Kući 04:47
4.Zmija, Mač i Sumpor 08:57
5.Tišina Zaboravljenih 02:05
******************************
Total playing time: 24:26



Technical info
(IMG:http://metalarea.org/images/spectrogram/2017_Nov/b1e3d618b86afd0e34b861b5bfb7fa9a.png)
Input File: 02 Disonantna Jeka Iz Dvorane Le?eva.mp3
Channels : 2
Sample Rate : 44100
Precision : 16-bit
Duration : 00:07:06.60 = 18812884 samples = 31994.7 CDDA sectors
File Size : 17.1M
Bit Rate : 321k
Sample Encoding: MPEG audio (layer I, II or III)
Comments :
Title=Disonantna Jeka Iz Dvorane LeЕЎeva
Artist=Ashen Chalice
Album=Kada Postanemo Pepeo, Kada Prihvatimo Smrt
Tracknumber=2
Year=2017
Genre=Black Metal



Register


Go to the top of the page
  Insert nick Quick quote
+Quote Post

Reply to this topicStart new topic
1 User(s) are reading this topic (1 Guests and 0 Anonymous Users)
0 Members:

 



- Lo-Fi Version Support form
Copyrights and abuse reports form
Time is now: 3rd December 2021 - 05:34:08