Welcome Guest ( Log In | Register )

> Altar Of Sin - Tales Of Carnage First Class (2012), Death/Thrash Metal (D5)
post Nov 24 2017, 03:09:59
Post #1

Правь статус, ####!616
**************
Group: Металариец
Posts: 7,184
Releases: 5616
From: 55°35’N 38°08’E
On Forums: 13 years 3 months
Thanks: 102366 time(s)
Unknown


(IMG:http://metalarea.org/images/audiocovers/2017_Nov/acov_tid298357_thumb.jpg)

*Artist: Altar Of Sin
*Album: Tales Of Carnage First Class
*Year: 2012
*Genre: Death/Thrash Metal
*Country: Spain (IMG:http://metalarea.org/forum/style_images/flags/Spain.png)
*Format: mp3@CBR320kbps
*Size: 104MB

Tracklist:
1. Master Satan 04:56
2. Wrapped in a Black Cloak 02:58
3. Tales of Carnage 03:38
4. Hard & Extreme 03:21
5. Voodoo Hell (Blessed by the Devil) 04:34
6. De Tribus Impostoribus 05:32
7. Les Demons 02:44
8. Into the Circle Pit 03:28
9. Outro: Malignant Enclosure 00:56
******************************
Total playing time: 32:07




Extended info
CD-Rip + scans


Technical info
(IMG:http://metalarea.org/images/spectrogram/2017_Nov/15349ac215e63cc55b8a3690b9ee778d.png)
Input File: 01 Master Satan.mp3
Channels : 2
Sample Rate : 44100
Precision : 16-bit
Duration : 00:04:57.84 = 13134568 samples = 22337.7 CDDA sectors
File Size : 11.9M
Bit Rate : 320k
Sample Encoding: MPEG audio (layer I, II or III)
Comments :
Title=Master Satan
Artist=Altar of Sin
Album=Tales of Carnage First Class
Tracknumber=1
Year=2012
Genre=Death/Thrash Metal



Register


Go to the top of the page
  Insert nick Quick quote
+Quote Post
 
Start new topic
Replies (1 - 1)
post Nov 24 2017, 03:20:37
Post #2

\m/
Group Icon
Group: S-moderation team
Posts: 7,951
Releases: 19
From: Петропавловск-Камчатский
On Forums: 12 years 4 months
Thanks: 8052 time(s)
Russian Federation


Lossless: FLAC (image+.cue+.log) + Covers Altar Of Sin - Tales Of Carnage First Class (2012) [post #2111130]


Thanks:
Go to the top of the page
  Insert nick Quick quote
+Quote Post

Reply to this topicStart new topic
1 User(s) are reading this topic (1 Guests and 0 Anonymous Users)
0 Members:

 



- Lo-Fi Version Support form
Copyrights and abuse reports form
Time is now: 16th October 2021 - 09:35:16