Welcome Guest ( Log In | Register )

Объявления

* gmail.com упорно продолжает считать почту с нас "unsolicited" и отбивает в том числе и письма активации, поэтому просьба использовать альтернативные почтовые ящики.
------------
* gmail.com continues reject all mail from us as "unsolicited" (activation mails too) therefore please use alternate mail servers.
> Vardan - Nostalgia - Archive Of Failures - Part II (2017), Depressive Black Metal
post Nov 24 2017, 13:11:41
Post #1

Serial Uploader
Group Icon
Group: V.I.P
Posts: 42,638
Releases: 40702
From: Lithuania
On Forums: 15 years 11 months
Thanks: 521655 time(s)
Lithuania


(IMG:http://metalarea.org/images/audiocovers/2017_Nov/acov_tid298375_thumb.jpg)

*Artist: Vardan
*Album: Nostalgia - Archive Of Failures - Part II
*Year: 2017
*Genre: Depressive Black Metal
*Country: Italy (IMG:http://metalarea.org/forum/style_images/flags/Italy.png)
*Format: mp3@CBR320kbps
*Size: 93MB

Tracklist:
01. Nostalgia P. 2 V 23:06
02. Nostalgia P. 2 VI 21:54
******************************
Total playing time: 45:00



(IMG:http://metalarea.org/images/youtube.png)

Extended info
Scene-rip


Technical info
(IMG:http://metalarea.org/images/spectrogram/2017_Nov/24f0dc31c8723994c07c253912c39961.png)
Input File: 02-vardan-nostalgia_pt_2_vi-db339fa6.mp3
Channels : 2
Sample Rate : 44100
Precision : 16-bit
Duration : 00:21:53.77 = 57937345 samples = 98532.9 CDDA sectors
File Size : 52.5M
Bit Rate : 320k
Sample Encoding: MPEG audio (layer I, II or III)
Comments :
Title=Nostalgia, Pt. 2 VI
Artist=Vardan
Album=Nostalgia-Archive of Failures, Pt. 2
Tracknumber=2/2
Year=2017
Genre=138



Register


This post has been edited by Borderline1991: Jan 22 2018, 21:56:07


Go to the top of the page
  Insert nick Quick quote
+Quote Post
 
Start new topic
Replies (1 - 3)
post Jan 22 2018, 21:54:48
Post #2

i listen to black metal
**************
Group: Металариец
Posts: 4,090
Releases: 150
From: Москва
On Forums: 17 years 5 months
Thanks: 2629 time(s)
Russian Federation


депра!!!
Go to the top of the page
  Insert nick Quick quote
+Quote Post
post Sep 5 2019, 19:32:51
Post #3

Ich bin die Trauer menschlich, kommen Sie zu mir und ich werde Ihnen vergelten
**************
Group: Металариец
Posts: 4,077
Releases: 691
From: Koenigsberg
On Forums: 16 years 4 months
Thanks: 12640 time(s)
Russian Federation


Register



Thanks:
Go to the top of the page
  Insert nick Quick quote
+Quote Post
post Sep 27 2023, 14:18:33
Post #4

Четыре Литра
****
Group: Металариец
Posts: 313
Releases: 0
On Forums: 2 years 2 months
Thanks: 23 time(s)
Antigua and Barbuda


Please reupload!
Go to the top of the page
  Insert nick Quick quote
+Quote Post

Reply to this topicStart new topic
2 User(s) are reading this topic (2 Guests and 0 Anonymous Users)
0 Members:

 



- Lo-Fi Version Support form
Copyrights and abuse reports form
Time is now: 30th May 2024 - 23:35:52