Welcome Guest ( Log In | Register )

 
Reply to this topicStart new topic
> Soulrest - Sentenced To Suicide [demo] (2001), Death Metal (D)
post Dec 2 2017, 13:36:55
Post #1

Два Литра
**
Group: Завсегдатай
Posts: 110
Releases: 10
From: Кривой Рог
On Forums: 12 years 3 months
Thanks: 197 time(s)
Ukraine


(IMG:https://metalarea.org/images/audiocovers/2017_Dec/acov_tid298749_thumb.jpg)

*Artist: Soulrest
*Album: Sentenced To Suicide [demo]
*Year: 2001
*Genre: Death Metal
*Country: Ukraine (IMG:https://metalarea.org/forum/style_images/flags/Ukraine.png)
*Format: mp3@CBR320kbps
*Size: 113MB

Tracklist:
1. Abysmal Ignorance
2. Rest of My Soul
3. Empty... Primitive Art
4. Mortuary Technician
5. Decrease
6. Slaughterhouse
7. Kill For Fun
8. Morbid Process
9. Bloody Roses
******************************
Total playing time: 48:17

Technical info
(IMG:https://metalarea.org/images/spectrogram/2017_Dec/0ecf0d6ef66b0fb94d7e4615c105ec6b.png)
Input File: 01.Abysmal Ignorance.mp3
Channels : 2
Sample Rate : 44100
Precision : 16-bit
Duration : 00:05:14.57 = 13872493 samples = 23592.7 CDDA sectors
File Size : 12.6M
Bit Rate : 320k
Sample Encoding: MPEG audio (layer I, II or III)
Comments :
Title=Abysmal Ignorance
Artist=Soulrest
Album=Sentenced to Suicide(Demo)
Tracknumber=01
Year=2001
Genre=22



Register


Go to the top of the page
  Insert nick Quick quote
+Quote Post

Reply to this topicStart new topic
2 User(s) are reading this topic (2 Guests and 0 Anonymous Users)
0 Members:

 



- Lo-Fi Version Support form
Copyrights and abuse reports form
Time is now: 2nd August 2021 - 13:27:03