Welcome Guest ( Log In | Register )

> Siniestro - El Elegido Del Mal (2017), Thrash/Death Metal (D5)
post Dec 5 2017, 11:01:28
Post #1

Правь статус, ####!111
**************
Group: Металариец
Posts: 29,296
Releases: 21510
From: Г.Харьков
On Forums: 10 years 2 weeks
Thanks: 444135 time(s)
Unknown


(IMG:http://metalarea.org/images/audiocovers/2017_Dec/acov_tid298850_thumb.jpg)

*Artist: Siniestro
*Album: El Elegido Del Mal
*Year: 2017
*Genre: Thrash/Death Metal
*Country: Chile (IMG:http://metalarea.org/forum/style_images/flags/Chile.png)
*Format: mp3@CBR320kbps
*Size: 118MB

Tracklist:
1. La Rebelion
2. El Humano Y Su Destruccion
3. Amenaza
4. Asesino De Ti Mismo
5. Fin De Los Tiempos
6. Sin Pelos En La Lengua
7. Poseido Por Dios
8. Guerra Por Religion
9. Oscura Alma
10. El Elegido Del Mal
******************************
Total playing time: 51:06



Extended info


Technical info
(IMG:http://metalarea.org/images/spectrogram/2017_Dec/f90fb5cc860952ccfd524b83ce18d304.png)
Input File: 03 - Amenaza.mp3
Channels : 2
Sample Rate : 44100
Precision : 16-bit
Duration : 00:04:36.15 = 12178083 samples = 20711 CDDA sectors
File Size : 11.2M
Bit Rate : 324k
Sample Encoding: MPEG audio (layer I, II or III)
Comments :
Title=Amenaza
Artist=Siniestro
Album=El elegido del mal
Tracknumber=3/10
Year=2017



Register


Go to the top of the page
  Insert nick Quick quote
+Quote Post
 
Start new topic
Replies (1 - 3)
post Dec 5 2017, 11:43:51
Post #2

Правь статус, ####!111
**************
Group: Металариец
Posts: 29,296
Releases: 21510
From: Г.Харьков
On Forums: 10 years 2 weeks
Thanks: 444135 time(s)
Unknown


Register


Thanks:
Go to the top of the page
  Insert nick Quick quote
+Quote Post
post Dec 6 2017, 08:12:43
Post #3

hearer & reader
**************
Group: Металариец
Posts: 10,281
Releases: 211
From: Moscow
On Forums: 14 years 8 months
Thanks: 12391 time(s)
Russian Federation



Не, вопли на испанском не возбуждают.


Thanks:
Go to the top of the page
  Insert nick Quick quote
+Quote Post
post Jan 14 2022, 16:25:11    Сейчас играет: Re-up please ;-)
Post #4

Правь статус, ####!111
**************
Group: Металариец
Posts: 2,213
Releases: 0
From: Sofia
On Forums: 14 years 7 months
Thanks: 74 time(s)
Bulgaria


Please re-up (IMG:style_emoticons/default/pray.gif) (IMG:style_emoticons/default/pray.gif)
Go to the top of the page
  Insert nick Quick quote
+Quote Post

Reply to this topicStart new topic
1 User(s) are reading this topic (1 Guests and 0 Anonymous Users)
0 Members:

 



- Lo-Fi Version Support form
Copyrights and abuse reports form
Time is now: 25th May 2022 - 20:39:51