Welcome Guest ( Log In | Register )

> Ruin - Plague Transmissions (Vol.1) [compilation] (2017), Death Metal (D13)
post Dec 14 2017, 12:11:51
Post #1

Serial Uploader
Group Icon
Group: V.I.P
Posts: 37,672
Releases: 35839
From: Lithuania
On Forums: 13 years 4 months
Thanks: 434510 time(s)
Lithuania


(IMG:https://metalarea.org/images/audiocovers/2017_Dec/acov_tid299220_thumb.jpg)

*Artist: Ruin
*Album: Plague Transmissions (Vol.1) [compilation]
*Year: 2017
*Genre: Death Metal
*Country: United States (IMG:https://metalarea.org/forum/style_images/flags/United%20States.png)
*Format: mp3@CBR320kbps
*Size: 126MB

Tracklist:
01. Perverted Lunacy
02. Massacre of Flesh and Bone
03. And Soon the Darkness
04. The Final Bloodbath
05. Putrid Is My Brain
06. The Bends
07. Haunted Asylum of Pain
08. Slow Death for a Perfect World
09. Warrior
10. Horizon Pestilence
11. A Foul Stench of Human Beings
12. Rotting Black Hole
13. Suffering Mind (Full of Maggots)
14. Becoming Disease
******************************
Total playing time: 53:49

(IMG:https://metalarea.org/images/youtube.png)

Technical info
(IMG:https://metalarea.org/images/spectrogram/2017_Dec/033472aa2b19ee27899f908ad3e0bd89.png)
Input File: 02. Massacre of Flesh and Bone.mp3
Channels : 2
Sample Rate : 44100
Precision : 16-bit
Duration : 00:02:18.46 = 6105954 samples = 10384.3 CDDA sectors
File Size : 5.77M
Bit Rate : 333k
Sample Encoding: MPEG audio (layer I, II or III)
Comments :
Title=Massacre of Flesh and Bone
Artist=Ruin
Album=Plague Transmissions (Vol.1)
Tracknumber=2/14
Year=2017



Register


Go to the top of the page
  Insert nick Quick quote
+Quote Post
 
Start new topic
Replies (1 - 5)
post Dec 15 2017, 05:27:52
Post #2

hearer & reader
**************
Group: Металариец
Posts: 9,907
Releases: 177
From: Moscow
On Forums: 14 years 1 month
Thanks: 11318 time(s)
Russian Federation


Это Ruin из Калифорнии - https://www.metal-archives.com/bands/Ruin/127704
И это сборник.
Альбом был недавно - Ruin - Drown In Blood (2017)
Go to the top of the page
  Insert nick Quick quote
+Quote Post
post Dec 15 2017, 08:21:35
Post #3

Аннигилятор пивА
Group Icon
Group: V.I.P
Posts: 52,360
Releases: 16550
From: Koenigsberg - TILZIT
On Forums: 15 years 4 months
Thanks: 368325 time(s)
Russian Federation


ЦИТАТА(AHBAnep @ Dec 15 2017, 04:27:52) *
И это сборник.
Альбом был недавно - Ruin - Drown In Blood (2017)

a compilation of Ruin's hard-to-get material from various Demos and split 7"s etc.
https://shop.klicktrack.com/519610
Go to the top of the page
  Insert nick Quick quote
+Quote Post
post Jul 22 2019, 09:40:09
Post #4

практически всеядное
****
Group: Металариец
Posts: 350
Releases: 0
On Forums: 12 years 6 months
Thanks: 197 time(s)
Russian Federation


Register
возвращаю


Thanks:
(1) artscald,
Go to the top of the page
  Insert nick Quick quote
+Quote Post
post Jan 22 2020, 01:18:19
Post #5

Правь статус, ####!111
**************
Group: Металариец
Posts: 9,381
Releases: 0
From: Москва
On Forums: 12 years 2 months
Thanks: 17341 time(s)
Russian Federation


Перезалейте плз
Go to the top of the page
  Insert nick Quick quote
+Quote Post
post Jan 25 2020, 11:24:56
Post #6

Правь статус, ####!111
Group Icon
Group: S-moderation team
Posts: 21,994
Releases: 1443
On Forums: 10 years 7 months
Thanks: 103586 time(s)
Unknown


Register


Go to the top of the page
  Insert nick Quick quote
+Quote Post

Reply to this topicStart new topic
2 User(s) are reading this topic (2 Guests and 0 Anonymous Users)
0 Members:

 



- Lo-Fi Version Support form
Copyrights and abuse reports form
Time is now: 21st October 2021 - 22:22:48