Welcome Guest ( Log In | Register )

> The Sickening - Sadistic Self Mutilation [ep] (2017), Brutal Death Metal (D5)
post Dec 23 2017, 07:17:46
Post #1

Аннигилятор пивА
Group Icon
Group: V.I.P
Posts: 52,445
Releases: 16544
From: Koenigsberg - TILZIT
On Forums: 16 years 9 months
Thanks: 370513 time(s)
Russian Federation


(IMG:https://metalarea.org/images/audiocovers/2017_Dec/acov_tid299584_thumb.jpg)

*Artist: The Sickening
*Album: Sadistic Self Mutilation [ep]
*Year: 2017
*Genre: Brutal Death Metal
*Country: Norway (IMG:https://metalarea.org/forum/style_images/flags/Norway.png)
*Format: mp3@VBR229kbps
*Size: 56MB

Tracklist:
01. Sadistic Self Mutilation 03:29
02. Devour Your Pain 03:37
03. They All Die 03:58
04. Violent Female Circumcision 02:46
05. Aggravated Explosive Prolapse of the Bowel (Soiled Rotten 2007 demo) 03:46
06. Death Devastation Decay (Soiled Rotten 2007 demo) 03:18
07. Castle of Death (Soiled Rotten 2007 demo) 04:19
08. Violent Female Circumcision (Soiled Rotten 2007 demo) 02:55
09. The Sickening – Obsessed with the Dead (Soiled Rotten 2007 demo) 04:08
******************************
Total playing time: 32:16




Extended info
Scene CD-RIP
Beist - Drums (2003-present) See also: ex-Likorm, ex-Slagmark, ex-Blood Red Throne
Markspist - Guitars, Vocals (backing) (2003-present) See also: ex-Slagmark
Sigve "Stardust" Torland - Vocals (2016-present)


Technical info
(IMG:https://metalarea.org/images/spectrogram/2017_Dec/3eb27ee51e8d7895485e753cfa77d249.png)
Input File: 01-the_sickening-sadistic_self_mutilation.mp3
Channels : 2
Sample Rate : 44100
Precision : 16-bit
Duration : 00:03:29.76 = 9250548 samples = 15732.2 CDDA sectors
File Size : 6.25M
Bit Rate : 238k
Sample Encoding: MPEG audio (layer I, II or III)
Comments :
Title=Sadistic Self Mutilation
Artist=The Sickening
Album=Sadistic Self Mutilation
Tracknumber=1/9
Year=2017
Genre=Death Metal
Discnumber=1/1



Register


Go to the top of the page
  Insert nick Quick quote
+Quote Post
 
Start new topic
Replies (1 - 1)
post Jan 25 2023, 02:40:57
Post #2

Правь статус, ####!111
**************
Group: Металариец
Posts: 8,048
Releases: 172
From: URUGUAY
On Forums: 16 years 5 months
Thanks: 26551 time(s)
Uruguay


new link
Register
Go to the top of the page
  Insert nick Quick quote
+Quote Post

Reply to this topicStart new topic
1 User(s) are reading this topic (1 Guests and 0 Anonymous Users)
0 Members:

 



- Lo-Fi Version Support form
Copyrights and abuse reports form
Time is now: 25th March 2023 - 21:42:43