Welcome Guest ( Log In | Register )

> An Autumn For Crippled Children - Trust [ep] (2017), Post-Metal/Shoegaze (D)
post Dec 23 2017, 15:20:32
Post #1

Правь статус, 616
**************
Group: Металариец
Posts: 10,626
Releases: 8637
From: 55°35’N 38°08’E
On Forums: 15 years 9 months
Thanks: 153165 time(s)
Russian Federation


(IMG:http://metalarea.org/images/audiocovers/2017_Dec/acov_tid299602_thumb.jpg)

*Artist: An Autumn For Crippled Children
*Album: Trust [ep]
*Year: 2017
*Genre: Post-Metal/Shoegaze
*Country: Netherlands (IMG:http://metalarea.org/forum/style_images/flags/Netherlands.png)
*Format: mp3@CBR320kbps
*Size: 22MB

Tracklist:
1. Forgot to Dream 04:42
2. 1st of August 04:25
******************************
Total playing time: 9:07




Technical info
(IMG:http://metalarea.org/images/spectrogram/2017_Dec/65de07d7986445a55f50f445530b4e62.png)
Input File: 01 Forgot to Dream.mp3
Channels : 2
Sample Rate : 44100
Precision : 16-bit
Duration : 00:04:42.99 = 12479771 samples = 21224.1 CDDA sectors
File Size : 11.5M
Bit Rate : 324k
Sample Encoding: MPEG audio (layer I, II or III)
Comments :
Title=Forgot to Dream
Artist=An Autumn For Crippled Children
Album=Trust
Tracknumber=1
Year=2017
Genre=Post-Black Metal



Register


Go to the top of the page
  Insert nick Quick quote
+Quote Post
 
Start new topic
Replies (1 - 5)
post Dec 25 2017, 16:32:39
Post #2

Четыре Литра
****
Group: Металариец
Posts: 354
Releases: 0
On Forums: 6 years 5 months
Thanks: 187 time(s)
Unknown


Вот вроде бы отличная музыка, хотя для подобного поджанра уж слишком маловато будет по времени звучания. Обе темы можно было бы развить и раскрыть побольше и тогда точно бы получился классный миник. А так все очень даже приятно на слух ложится, но повторюсь маловато будет.
Go to the top of the page
  Insert nick Quick quote
+Quote Post
post May 29 2018, 23:23:14
Post #3

Правь статус, ####!111
**************
Group: Металариец
Posts: 55,773
Releases: 1187
On Forums: 14 years 10 months
Thanks: 54502 time(s)
Russian Federation


Выпуск нового альбома The Light of September запланирован на сентябрь. Превью:

Register
Go to the top of the page
  Insert nick Quick quote
+Quote Post
post May 29 2018, 23:29:35
Post #4
BAN
Banned till
May 9 2024, 18:47:08



ЦИТАТА(vosmidesijatye @ 30th May 2018 - 01:23:14) *
Выпуск нового альбома The Light of September запланирован на сентябрь

Но зачем?
Go to the top of the page
  Insert nick Quick quote
+Quote Post
post May 29 2018, 23:47:57
Post #5

Правь статус, ####!111
**************
Group: Металариец
Posts: 55,773
Releases: 1187
On Forums: 14 years 10 months
Thanks: 54502 time(s)
Russian Federation


ЦИТАТА(6666666 @ May 30 2018, 02:29:35) *
Но зачем?


На спрос! (IMG:style_emoticons/default/1488.gif)
Go to the top of the page
  Insert nick Quick quote
+Quote Post
post Dec 23 2018, 21:42:45
Post #6

Black is beautiful
***********
Group: Металариец
Posts: 1,980
Releases: 4
On Forums: 12 years 1 month
Thanks: 445 time(s)
Unknown


I like this band! Good release. (IMG:style_emoticons/default/m0114.gif)


Thanks:
(1) Dante_D,
Go to the top of the page
  Insert nick Quick quote
+Quote Post

Reply to this topicStart new topic
2 User(s) are reading this topic (2 Guests and 0 Anonymous Users)
0 Members:

 



- Lo-Fi Version Support form
Copyrights and abuse reports form
Time is now: 19th April 2024 - 22:19:30