Welcome Guest ( Log In | Register )

Объявления

* gmail.com упорно продолжает считать почту с нас "unsolicited" и отбивает в том числе и письма активации, поэтому просьба использовать альтернативные почтовые ящики.
------------
* gmail.com continues reject all mail from us as "unsolicited" (activation mails too) therefore please use alternate mail servers.
> Afgrund - The Dystopian (2018), Death Metal/Grindcore
post Jan 4 2018, 13:09:14
Post #1

Serial Uploader
Group Icon
Group: V.I.P
Posts: 42,442
Releases: 40504
From: Lithuania
On Forums: 15 years 10 months
Thanks: 517677 time(s)
Lithuania


(IMG:https://metalarea.org/images/audiocovers/2018_Jan/acov_tid300077_thumb.jpg)

*Artist: Afgrund
*Album: The Dystopian
*Year: 2018
*Genre: Death Metal/Grindcore
*Country: Sweden (IMG:https://metalarea.org/forum/style_images/flags/Sweden.png)
*Format: mp3@CBR320kbps
*Size: 54MB

Tracklist:
01. Limitless Source of Power
02. Ruttna
03. Re-Exordium
04. Callous
05. Royalty of Crust
06. Crossfire Agent
07. (Yet) Another Way To Kill
08. The Great Rift
09. Archaic Plague
10. Smasher of Skulls
11. Demise Strategy
******************************
Total playing time: 23:32




Technical info
(IMG:https://metalarea.org/images/spectrogram/2018_Jan/07933a8ab0e14c185df0c649de11a955.png)
Input File: 02. Ruttna.mp3
Channels : 2
Sample Rate : 44100
Precision : 16-bit
Duration : 00:00:56.12 = 2474716 samples = 4208.7 CDDA sectors
File Size : 2.29M
Bit Rate : 326k
Sample Encoding: MPEG audio (layer I, II or III)
Comments :
Title=Ruttna
Artist=Afgrund
Album=The Dystopian
Tracknumber=2/11/11
Year=2018
Discnumber=1/1/1



Register


Go to the top of the page
  Insert nick Quick quote
+Quote Post
 
Start new topic
Replies (1 - 3)
post Jan 4 2018, 18:17:00
Post #2

MDM-Thrash Metal
**************
Group: Металариец
Posts: 12,395
Releases: 1733
From: Одесса
On Forums: 16 years 8 months
Thanks: 40318 time(s)
Ukraine


Register


Thanks:
Go to the top of the page
  Insert nick Quick quote
+Quote Post
post Jan 6 2018, 11:27:11
Post #3

hearer & reader
**************
Group: Металариец
Posts: 10,900
Releases: 234
From: Moscow
On Forums: 16 years 7 months
Thanks: 13644 time(s)
Russian Federation




Thanks:
(1) Storky,
Go to the top of the page
  Insert nick Quick quote
+Quote Post
post Aug 31 2022, 23:25:29
Post #4

Правь статус, ####!111
**************
Group: Металариец
Posts: 8,732
Releases: 197
From: HELL
On Forums: 17 years 6 months
Thanks: 30276 time(s)
Uruguay


320
Register
Go to the top of the page
  Insert nick Quick quote
+Quote Post

Reply to this topicStart new topic
1 User(s) are reading this topic (1 Guests and 0 Anonymous Users)
0 Members:

 



- Lo-Fi Version Support form
Copyrights and abuse reports form
Time is now: 25th April 2024 - 16:26:03