Welcome Guest ( Log In | Register )

> 

Здесь релизы с живыми прямыми ссылками на lossless

> Hate Manifesto - To Those Who Glorified Death (2017), Black/Death Metal
post Jan 5 2018, 08:31:33
Post #1

Правь статус, ####!111
**************
Group: Металариец
Posts: 5,168
Releases: 1566
From: Brazil
On Forums: 12 years 2 months
Thanks: 63955 time(s)
Brazil


(IMG:https://metalarea.org/images/audiocovers/2018_Jan/acov_tid300112_thumb.jpg)

*Artist: Hate Manifesto
*Album: To Those Who Glorified Death
*Year: 2017
*Genre: Black/Death Metal
*Country: Greece (IMG:https://metalarea.org/forum/style_images/flags/Greece.png)
*Format: mp3@CBR320kbps
*Size: 75MB

Tracklist:
1. To Those Who Glorified Death 04:12
2. Winter Wolf Brigade 04:49
3. The Arch of the Fallen 06:05
4. Disciples of the Iron Shield 05:16
5. Wrath Hammer 03:24
6. The Deification of Your Extinction 04:26
7. Conqueror's Memorial 04:25
******************************
Total playing time: 32:37



Technical info
(IMG:https://metalarea.org/images/spectrogram/2018_Jan/509c6ddd157b9afd07c8183116ae0d7e.png)
Input File: 02 Winter Wolf Brigade.mp3
Channels : 2
Sample Rate : 44100
Precision : 16-bit
Duration : 00:04:49.73 = 12776873 samples = 21729.4 CDDA sectors
File Size : 11.6M
Bit Rate : 320k
Sample Encoding: MPEG audio (layer I, II or III)
Comments :
Title=Winter Wolf Brigade
Artist=Hate Manifesto
Album=To Those Who Glorified Death
Tracknumber=2
Year=2017



Register


Go to the top of the page
  Insert nick Quick quote
+Quote Post
 
Start new topic
Replies (1 - 4)
post Jan 5 2018, 18:30:58
Post #2

Правь статус, ####!111
**************
Group: Металариец
Posts: 9,497
Releases: 0
From: Москва
On Forums: 14 years 8 months
Thanks: 19420 time(s)
Russian Federation


Register
320


Go to the top of the page
  Insert nick Quick quote
+Quote Post
post Jan 14 2019, 19:08:13
Post #3

Black is beautiful
***********
Group: Металариец
Posts: 1,979
Releases: 4
On Forums: 12 years 1 month
Thanks: 445 time(s)
Unknown


(IMG:style_emoticons/default/dwarf-1.gif) Yeah! Great!


Thanks:
Go to the top of the page
  Insert nick Quick quote
+Quote Post
post Jan 16 2021, 14:40:26
Post #4

Правь статус, ####!111
**************
Group: Металариец
Posts: 4,852
Releases: 41
On Forums: 6 years 5 months
Thanks: 14809 time(s)
Unknown


Register


Go to the top of the page
  Insert nick Quick quote
+Quote Post
post Jun 9 2023, 17:56:58
Post #5

Правь статус, ####!111
**************
Group: Металариец
Posts: 8,717
Releases: 197
From: HELL
On Forums: 17 years 6 months
Thanks: 30204 time(s)
Uruguay


320
Register


Go to the top of the page
  Insert nick Quick quote
+Quote Post

Reply to this topicStart new topic
1 User(s) are reading this topic (1 Guests and 0 Anonymous Users)
0 Members:

 



- Lo-Fi Version Support form
Copyrights and abuse reports form
Time is now: 15th April 2024 - 03:58:56