Welcome Guest ( Log In | Register )

> Deathfucker - Fuck The Trinity [ep] (2017), Old School Thrash Metal
post Jan 7 2018, 16:46:40
Post #1

Аннигилятор пивА
Group Icon
Group: V.I.P
Posts: 52,360
Releases: 16550
From: Koenigsberg - TILZIT
On Forums: 15 years 2 months
Thanks: 367928 time(s)
Russian Federation


(IMG:https://metalarea.org/images/audiocovers/2018_Jan/acov_tid300218_thumb.jpg)

*Artist: Deathfucker
*Album: Fuck The Trinity [ep]
*Year: 2017
*Genre: Old School Thrash Metal
*Country: Italy (IMG:https://metalarea.org/forum/style_images/flags/Italy.png)
*Format: mp3@VBR270kbps
*Size: 38MB

Tracklist:
01. Dechristianized 04:30
02. Fuck the Trinity 02:51
03. Intoxication of the Soul 02:59
04. Agents of Satan 04:52
05. Obsessed by Death 03:43
******************************
Total playing time: 18:55


Preview 2

Extended info
J.K. - Drums (2015-present) See also: Valgrind, ex-Injury
Insulter - Vocals, Guitars, Bass (2015-present) See also: ex-Inferi



Technical info
(IMG:https://metalarea.org/images/spectrogram/2018_Jan/8dd63fedd72c7b9235af671d9ae1dae9.png)
Input File: 02-deathfucker-fuck_the_trinity.mp3
Channels : 2
Sample Rate : 44100
Precision : 16-bit
Duration : 00:02:51.04 = 7542864 samples = 12828 CDDA sectors
File Size : 5.79M
Bit Rate : 271k
Sample Encoding: MPEG audio (layer I, II or III)
Comments :
Title=Fuck the Trinity
Artist=Deathfucker
Album=Fuck The Trinity
Tracknumber=2/5
Year=2017-00-00
Genre=Thrash Metal



Register


Go to the top of the page
  Insert nick Quick quote
+Quote Post
 
Start new topic
Replies (1 - 5)
post Jan 7 2018, 17:20:34
Post #2

Аннигилятор пивА
Group Icon
Group: V.I.P
Posts: 52,360
Releases: 16550
From: Koenigsberg - TILZIT
On Forums: 15 years 2 months
Thanks: 367928 time(s)
Russian Federation


MIRROR
Register


Go to the top of the page
  Insert nick Quick quote
+Quote Post
post Jan 7 2018, 17:29:47
Post #3

South Of Heaven /адепт ВУДУ
**************
Group: Металариец
Posts: 13,960
Releases: 9
On Forums: 11 years 3 months
Thanks: 5563 time(s)
Unknown


Tagfucker (IMG:style_emoticons/default/crazy.gif)

Судя по превью что-то околослеероподобное.
Go to the top of the page
  Insert nick Quick quote
+Quote Post
post Jan 7 2018, 17:37:46
Post #4

Аннигилятор пивА
Group Icon
Group: V.I.P
Posts: 52,360
Releases: 16550
From: Koenigsberg - TILZIT
On Forums: 15 years 2 months
Thanks: 367928 time(s)
Russian Federation


ЦИТАТА(avkruchinin @ Jan 7 2018, 16:29:47) *
Tagfucker (IMG:style_emoticons/default/crazy.gif)

Судя по превью что-то околослеероподобное.

сатаник расколбас с привкусом протоблэка и протодэта (IMG:style_emoticons/default/crazy.gif)
Go to the top of the page
  Insert nick Quick quote
+Quote Post
post Jan 8 2018, 11:43:20
Post #5

Маньяк
**********
Group: Металариец
Posts: 1,413
Releases: 5
From: Нью-Васюки
On Forums: 15 years 2 months
Thanks: 422 time(s)
Russian Federation


звукорежиссера за яйца повесить нужно, голос не мог нормально прописать, где то в заднице поместил.
Go to the top of the page
  Insert nick Quick quote
+Quote Post
post Jul 21 2021, 02:41:27
Post #6

Group: Подсевший
Posts: 22
Releases: 0
On Forums: 2 years 9 months
Thanks: 0 time(s)
Unknown


Re-upload
Go to the top of the page
  Insert nick Quick quote
+Quote Post

Reply to this topicStart new topic
1 User(s) are reading this topic (1 Guests and 0 Anonymous Users)
0 Members:

 



- Lo-Fi Version Support form
Copyrights and abuse reports form
Time is now: 27th July 2021 - 20:47:06