Welcome Guest ( Log In | Register )

Объявления

* gmail.com упорно продолжает считать почту с нас "unsolicited" и отбивает в том числе и письма активации, поэтому просьба использовать альтернативные почтовые ящики.
------------
* gmail.com continues reject all mail from us as "unsolicited" (activation mails too) therefore please use alternate mail servers.
> HexenHammer's Flame - Кровь Концлагерей (2017), Melodic Black Metal (D5)
post Jan 8 2018, 11:47:40
Post #1

Правь статус, ####!111
**************
Group: Металариец
Posts: 35,958
Releases: 26797
From: Г.Харьков
On Forums: 12 years 2 weeks
Thanks: 581362 time(s)
Ukraine


(IMG:http://metalarea.org/images/audiocovers/2018_Jan/acov_tid300252_thumb.jpg)

*Artist: HexenHammer's Flame
*Album: Кровь Концлагерей
*Year: 2017
*Genre: Melodic Black Metal
*Country: Russian Federation (IMG:http://metalarea.org/forum/style_images/flags/Russian%20Federation.png)
*Format: mp3@CBR320kbps
*Size: 118MB

Tracklist:
1. В полицейском государстве 04:42
2. Новый Бухенвальд 05:10
3. Кровь концлагерей 05:38
4. Стравливая братьев 04:09
5. Живя иллюзией свободы 04:55
6. Тень прошлого 07:06
7. Без права на смерть 06:56
8. Сломанный системой 04:43
9. Майданек 08:05
******************************
Total playing time: 51:24



Technical info
(IMG:http://metalarea.org/images/spectrogram/2018_Jan/304bc85164cf29b02b4d9b9576f0c688.png)
Input File: 02. Новый Бухенвальд.mp3
Channels : 2
Sample Rate : 44100
Precision : 16-bit
Duration : 00:05:10.41 = 13688905 samples = 23280.5 CDDA sectors
File Size : 12.5M
Bit Rate : 322k
Sample Encoding: MPEG audio (layer I, II or III)
Comments :
Title=Новый Бухенвальд
Artist=HexenHammer's Flame
Album= Кровь концлагерей
Tracknumber=2
Year=2017



Register


Go to the top of the page
  Insert nick Quick quote
+Quote Post
 
Start new topic
Replies (1 - 6)
post Jan 8 2018, 23:28:38
Post #2

MDMщик
**************
Group: Металариец
Posts: 6,122
Releases: 386
From: Asgaard
On Forums: 18 years 5 months
Thanks: 6183 time(s)
Saint Pierre and Miquelon


какафка?
Go to the top of the page
  Insert nick Quick quote
+Quote Post
post Jan 14 2018, 19:27:47
Post #3

Маньяк
**********
Group: Металариец
Posts: 1,428
Releases: 1
From: Беларусь
On Forums: 16 years 4 months
Thanks: 643 time(s)
Russian Federation


ЦИТАТА(SnaP @ Jan 9 2018, 01:28:38) *
какафка?

подтверждаю! Ну зачем такие барабаны прописывать?
Go to the top of the page
  Insert nick Quick quote
+Quote Post
post Jan 17 2018, 15:19:38
Post #4

Правь статус, ####!111
**************
Group: Металариец
Posts: 2,299
Releases: 1011
From: Гиперборе́я
On Forums: 13 years 6 months
Thanks: 22155 time(s)
Russian Federation


на Aufschwung , как похожи , еще и с одного города (IMG:style_emoticons/default/hmm.gif)
Go to the top of the page
  Insert nick Quick quote
+Quote Post
post Jan 17 2018, 15:23:46
Post #5

Правь статус, ####!111
Group Icon
Group: S-moderation team
Posts: 22,058
Releases: 1443
On Forums: 13 years 3 months
Thanks: 127965 time(s)
Unknown


QUOTE(добрыйКот @ Jan 17 2018, 15:19:38) *
на Aufschwung , как похожи , еще и с одного города (IMG:style_emoticons/default/hmm.gif)
Aufschwung is fucking awesome, and I wish they weren't forbidden on MA. It's one of the best Russian bands, next to m8l8th.


Go to the top of the page
  Insert nick Quick quote
+Quote Post
post Jan 17 2018, 15:35:12
Post #6

Правь статус, ####!111
**************
Group: Металариец
Posts: 2,299
Releases: 1011
From: Гиперборе́я
On Forums: 13 years 6 months
Thanks: 22155 time(s)
Russian Federation


ЦИТАТА(Borderline1991 @ 17th January 2018 - 15:23:46) *
Aufschwung is fucking awesome, and I wish they weren't forbidden on MA. It's one of the best Russian bands, next to m8l8th.

Самые Лучшие банды Руси !!! , хотя Aufschwung , очень жаль (IMG:style_emoticons/default/6.gif)


Thanks:
Go to the top of the page
  Insert nick Quick quote
+Quote Post
post Oct 6 2023, 03:05:42
Post #7

Правь статус, ####!111
**************
Group: Металариец
Posts: 3,332
Releases: 0
On Forums: 15 years 3 months
Thanks: 1668 time(s)
South Korea


1. 320 kbps from the neighborhood on the web:
Register

Register

Thanks to Mefody!

2. Each track previewable or downloadable at 320 kbps for free (or purchase) if you want to preview or miss some tracks:
Register


[All credits go to the band and the posters.]
Go to the top of the page
  Insert nick Quick quote
+Quote Post

Reply to this topicStart new topic
1 User(s) are reading this topic (1 Guests and 0 Anonymous Users)
0 Members:

 



- Lo-Fi Version Support form
Copyrights and abuse reports form
Time is now: 28th May 2024 - 17:36:08