Welcome Guest ( Log In | Register )

> Tattoo - Blood Red (1988), Heavy Metal
post Jan 12 2018, 16:29:10
Post #1

Serial Uploader
Group Icon
Group: V.I.P
Posts: 42,373
Releases: 40442
From: Lithuania
On Forums: 15 years 10 months
Thanks: 516532 time(s)
Lithuania


(IMG:http://metalarea.org/images/audiocovers/2018_Jan/acov_tid300443_thumb.jpg)

*Artist: Tattoo
*Album: Blood Red
*Year: 1988
*Genre: Heavy Metal
*Country: United States (IMG:http://metalarea.org/forum/style_images/flags/United%20States.png)
*Format: mp3@CBR320kbps
*Size: 92MB

Tracklist:
01. Top Of The Rock 03:38
02. Red Light 03:33
03. Gear Head 04:14
04. Nobody Gets Out Alive 03:22
05. Blood Red 02:56
06. Rampage 03:40
07. Ball Breaker 03:27
08. Stand On The Mountain 03:51
09. She's A Rocker 04:53
10. Follow Your Heart 04:05
******************************
Total playing time: 37:39

(IMG:http://metalarea.org/images/myspace.png)
(IMG:http://metalarea.org/images/youtube.png)

Extended info
CD-rip with scans


Technical info
(IMG:http://metalarea.org/images/spectrogram/2018_Jan/c408435041fe6162f94fe9968f22f896.png)
Input File: 02. Red Light.mp3
Channels : 2
Sample Rate : 44100
Precision : 16-bit
Duration : 00:03:33.29 = 9405913 samples = 15996.5 CDDA sectors
File Size : 8.53M
Bit Rate : 320k
Sample Encoding: MPEG audio (layer I, II or III)
Comments :
Title=Red Light
Artist=Tattoo
Album=Blood Red
Tracknumber=2/10
Year=1988
Genre=Heavy Metal



Register


Go to the top of the page
  Insert nick Quick quote
+Quote Post
 
Start new topic
Replies (1 - 5)
post Jan 13 2018, 17:42:01
Post #2

South Of Heaven /адепт ВУДУ
**************
Group: Металариец
Posts: 13,960
Releases: 9
On Forums: 14 years 2 weeks
Thanks: 5684 time(s)
Unknown


Хороший альбом, является переизданием дебютного от 1985 года + одна песня, а вот второй от 1993 года уже так себе, ну собственно, группа после него и распалась.
Go to the top of the page
  Insert nick Quick quote
+Quote Post
post Dec 4 2019, 22:53:06
Post #3

Три Литра
***
Group: Завсегдатай
Posts: 217
Releases: 0
On Forums: 9 years 5 months
Thanks: 44 time(s)
Unknown


А можно обновить ссылочку? Большое спасибо заранее!
Go to the top of the page
  Insert nick Quick quote
+Quote Post
post Dec 5 2019, 07:15:01
Post #4

Пять Литров
*****
Group: Металариец
Posts: 485
Releases: 0
On Forums: 12 years 4 months
Thanks: 31 time(s)
Portugal


re-up thanks
Go to the top of the page
  Insert nick Quick quote
+Quote Post
post Dec 5 2019, 08:42:12
Post #5

Правь статус, ####!111
**************
Group: Металариец
Posts: 6,135
Releases: 0
On Forums: 5 years 9 months
Thanks: 19746 time(s)
Russian Federation


88 mb/320 kbps
Register


Go to the top of the page
  Insert nick Quick quote
+Quote Post
post Dec 5 2019, 22:49:21
Post #6

Три Литра
***
Group: Завсегдатай
Posts: 217
Releases: 0
On Forums: 9 years 5 months
Thanks: 44 time(s)
Unknown


ЦИТАТА(Ingvar @ Dec 5 2019, 08:42:12) *
88 mb/320 kbps

Огромнейшее спасибо! (IMG:style_emoticons/default/9.gif)


Thanks:
Go to the top of the page
  Insert nick Quick quote
+Quote Post

Reply to this topicStart new topic
1 User(s) are reading this topic (1 Guests and 0 Anonymous Users)
0 Members:

 



- Lo-Fi Version Support form
Copyrights and abuse reports form
Time is now: 17th April 2024 - 22:58:45