Welcome Guest ( Log In | Register )

> И неформату есть предел.

Рэп/хип-хоп/шансон/поп удаляются. Для них есть свои порталы.

> Senmuth Feat. Wervolka - Амену Секхем: Память Песков [single] (2017), Ethnic Ambient
post Jan 16 2018, 07:55:15
Post #1

Senmuthmusic
****
Group: Металариец
Posts: 302
Releases: 29
On Forums: 13 years 5 months
Thanks: 954 time(s)
Russian Federation


(IMG:https://metalarea.org/images/audiocovers/2018_Jan/acov_tid300582_thumb.jpg)

*Artist: Senmuth Feat. Wervolka
*Album: Амену Секхем: Память Песков [single]
*Year: 2017
*Genre: Ethnic Ambient
*Country: Russian Federation (IMG:https://metalarea.org/forum/style_images/flags/Russian%20Federation.png)
*Format: mp3@CBR320kbps
*Size: 60MB

Tracklist:
01. Слёзы Сердца Царевны Хнумит
02. Песнь Царевны Ити
03. Слёзы Сердца Царевны Хнумит (instrumental)
04. Песнь Царевны Ити (instrumental)
******************************
Total playing time: 24:36

Extended info
«Слёзы Сердца Царевны Хнумит»
Лирика: Влад Павловский



Трогательная песня любви древней красавицы, жившей в эпоху Среднего Царства, обращённая к Владыке её сердца, величественному соколу Гора. О самой Хнумит известно мало, но мы хотели представить, чем она жила, как обычный человек. Жизнь девушки, даже царицы, не могла не быть наполнена Любовью, даруемой Золотой, Госпожой Бирюзы. За эту любовь она готова была бороться, даже прибегая к сакральной египетской магии.

До наших дней дошли нетронутая грабителями гробница Хнумит, ныне засыпанная песками, и множество ювелирных украшений, которые находятся в экспозиции Каирского музея в Каире и представляют прекрасные образцы чеканки по золоту Среднего царства.


Сокол мой ловчий, быстрая птица, многие ночи в радуге снится.
В небе высоком вижу я друга, сколь одиноко ласточке юга.
Брат мой услышит нежные зовы, стану я тише вод бирюзовых,
Ласковей стану флейты журчанья и неустанным жаром ночами!

Ярый мой коршун, смелый воитель! Слёзы всё горше, как не пролить их?
Злая подруга вьёт ему локон? Ласточку юга помнит ли сокол?
Стану жестока! ту, что вредила, ждёт на припеке пасть крокодила,
Ждёт у истока рать павианов. Стану жестока, мстительна стану!

Голубь мой синий, Царь моей пищи, там на чужбине дома не сыщешь.
Очи устали брата не видеть. Жертва простая – зёрна Исиде.
Правду рассвета дай, Золотая! Путы навета так не пытают,
Меч наговора так не калечит. Скоро ли, скоро милого встречу?

Сердце мудрее жреческих гадов, ядов урея сердцу не надо.
Как полечу я брату в объятья, стан облачу я в белые платья,
Солнечной нитью выложу кудри, знай, Повелитель, ибис мой мудрый,
Всех лазуритов искренней брызги. Помни мой свиток, Ра моей жизни.

Хнумит пела о жизни, о любви. Ити, её "соседка по двойной гробнице", поёт из-за грани смерти, из плена песков памяти.

«Песнь Царевны Ити»
Лирика: Александр "Сэро" Коньков



Над песками ночь крыла
Распахнёт
И снова сном
Укрытый дом
Зовёт…

Через годы и пространства память жаждет постоянства,
И взывает – кто отыщет? Кто придёт, возьмёт, услышит?
Кто захочет прикоснуться – дать душе ожить, проснуться?
Кто посмеет эхом тронуть эти мёртвые ладони?
Кто прочтёт и имя вспомнит,
Светом вновь чертог наполнит?..

На рассвете слышен шорох,
Звук шагов…
Кто веков покой тревожит?
Кто таков?..

Ты ли, брат мой, снова здесь?..
Молви имя…
Я жду тебя,
Во сне любя.
Ответь!..

Пусть шакал песками рыщет – он дороги не разыщет,
Ветер разметает тропы – не узрит их с неба сокол,
Мудрый в храме не подскажет путь куда твой ныне ляжет.

Брат мой, брат, по сердца зову разорви оковы взора,
Позови и имя вспомни,
Светом мой чертог наполни…

Жемчуг нитью по запястьям,
Тёмен зал.
Распахни мои объятия
Как мечтал!..

Страшен смерти долгий путь.
Всё, чем был ты,
Пока века Несёт Река,
Забудь…

Но не слышен шёпот нежный. Ветер время вьёт как прежде,
И, забвеньем укрывая, письмена со стен стирает…
Не найти дороги ныне – память отдана пустыне.

Ра ладью стремит к закату, уходя в горящий запад…
Нет того, кто имя вспомнит.
Мраком мой чертог наполнен…

Страшен смерти долгий путь.
Кем была я,
Пока века
Несёт Река,
Забудь…

Wervolka: вокал, бэк-вокал
Senmuth: музыка, сведение, графическое оформление
Станислав Черемных: бэк-вокал, запись вокала


Technical info
(IMG:https://metalarea.org/images/spectrogram/2018_Jan/4da05dccbbb6e48e07c0bcf12db08c7e.png)
Input File: 03 Senmuth feat. Wervolka - Слёзы Сердца Царевны Хнумит [instrumental].mp3
Channels : 2
Sample Rate : 44100
Precision : 16-bit
Duration : 00:05:29.02 = 14509606 samples = 24676.2 CDDA sectors
File Size : 14.1M
Bit Rate : 342k
Sample Encoding: MPEG audio (layer I, II or III)
Comments :
Title=Слёзы Сердца Царевны Хнумит [instrumental]
Artist=Senmuth feat. Wervolka
Album=Амену Секхем: Память Песков
Tracknumber=03
Year=2017
Genre=Ethnic ambient



Register


Go to the top of the page
  Insert nick Quick quote
+Quote Post
 
Start new topic
Replies (1 - 2)
post Jan 16 2018, 15:33:34
Post #2

практически всеядное
****
Group: Металариец
Posts: 350
Releases: 0
On Forums: 12 years 6 months
Thanks: 197 time(s)
Russian Federation


круто, 3 и 4 треки еще и в wav причем 4й два раза... и того 250 мгб ничё так сингл


Thanks:
(1) Senmuth,
Go to the top of the page
  Insert nick Quick quote
+Quote Post
post Jan 16 2018, 15:41:33
Post #3

Senmuthmusic
****
Group: Металариец
Posts: 302
Releases: 29
On Forums: 13 years 5 months
Thanks: 954 time(s)
Russian Federation


Спасибо) Вавки случайно затесались. Архив обновил, сорян
Go to the top of the page
  Insert nick Quick quote
+Quote Post

Reply to this topicStart new topic
2 User(s) are reading this topic (2 Guests and 0 Anonymous Users)
0 Members:

 



- Lo-Fi Version Support form
Copyrights and abuse reports form
Time is now: 21st October 2021 - 22:38:07