Welcome Guest ( Log In | Register )

> И неформату есть предел.

Рэп/хип-хоп/шансон/поп удаляются. Для них есть свои порталы.

> Πлачь Ʒемля - Burzum [ep] (2017), Black Metal/Ambient/Electronic
post Jan 16 2018, 17:18:36
Post #1

Правь статус, ####!111
**************
Group: Металариец
Posts: 44,611
Releases: 688
On Forums: 10 years 6 months
Thanks: 35878 time(s)
Russian Federation


(IMG:http://metalarea.org/images/audiocovers/2018_Jan/acov_tid300598_thumb.jpg)

*Artist: Πлачь Ʒемля
*Album: Burzum [ep]
*Year: 2017
*Genre: Black Metal/Ambient/Electronic
*Country: Russian Federation (IMG:http://metalarea.org/forum/style_images/flags/Russian%20Federation.png)
*Format: mp3@CBR320kbps
*Size: 17MB

Tracklist:
1. Black Spell Of Destruction (Burzum Cover) 04:24
2. Jesus Tod (Burzum Cover) 03:20
******************************
Total playing time: 7:44



Technical info
(IMG:http://metalarea.org/images/spectrogram/2018_Jan/ce65f2d9c847bcc7847988d832ada09b.png)
Input File: 01. Black Spell Of Destruction.mp3
Channels : 2
Sample Rate : 44100
Precision : 16-bit
Duration : 00:04:24.13 = 11647957 samples = 19809.5 CDDA sectors
File Size : 10.6M
Bit Rate : 320k
Sample Encoding: MPEG audio (layer I, II or III)
Comments :
Title=Black Spell Of Destruction
Artist=Πлачь Ʒемля
Album=Burzum
Tracknumber=01/02
Year=2017
Genre=Black Metal



Register


Thanks:
Go to the top of the page
  Insert nick Quick quote
+Quote Post
 
Start new topic
Replies (1 - 9)
post Jan 16 2018, 17:30:58
Post #2

Правь статус, ####!111
**************
Group: Металариец
Posts: 44,611
Releases: 688
On Forums: 10 years 6 months
Thanks: 35878 time(s)
Russian Federation


@320

Register
Go to the top of the page
  Insert nick Quick quote
+Quote Post
post Jan 16 2018, 17:37:02
Post #3

Четыре Литра
****
Group: Металариец
Posts: 358
Releases: 1
From: Ingrija
On Forums: 12 years 2 weeks
Thanks: 314 time(s)
Russian Federation


и давно вичуха форматом стала?
Go to the top of the page
  Insert nick Quick quote
+Quote Post
post Jan 16 2018, 17:52:45
Post #4

Маньяк
**********
Group: Металариец
Posts: 1,110
Releases: 37
From: великий город Питер
On Forums: 14 years 1 day
Thanks: 1891 time(s)
Russian Federation


возникает только один вопрос - нахрена???


Thanks:
Go to the top of the page
  Insert nick Quick quote
+Quote Post
post Jan 16 2018, 18:04:44
Post #5

Все люди - черви.
**********
Group: Металариец
Posts: 1,081
Releases: 126
From: Пхёнъян, Северная Корея
On Forums: 6 years 11 months
Thanks: 3983 time(s)
North Korea


Зашквар с одного только названия. (IMG:style_emoticons/default/22.gif)
Go to the top of the page
  Insert nick Quick quote
+Quote Post
post Jan 16 2018, 18:42:23
Post #6

Leegte
***********
Group: Металариец
Posts: 1,589
Releases: 14
From: Kiovia
On Forums: 7 years 7 months
Thanks: 2270 time(s)
Ukraine


Это какой-то копроопущенизм.
Go to the top of the page
  Insert nick Quick quote
+Quote Post
post Jan 16 2018, 20:07:38
Post #7

Котеги! Нравяцо котеги?
**************
Group: Металариец
Posts: 6,007
Releases: 0
From: Терра Инкогнита
On Forums: 9 years 6 months
Thanks: 2459 time(s)
Russian Federation


ЦИТАТА(mondblut @ 16th January 2018 - 19:37:02) *
вичуха

шо це теке?
Go to the top of the page
  Insert nick Quick quote
+Quote Post
post Jan 16 2018, 20:25:50
Post #8

Аннигилятор пивА
Group Icon
Group: V.I.P
Posts: 52,360
Releases: 16555
From: Koenigsberg - TILZIT
On Forums: 13 years 6 months
Thanks: 363307 time(s)
Russian Federation


ЦИТАТА(AlexCrazy @ Jan 16 2018, 16:52:45) *
возникает только один вопрос - нахрена???

пока до Jan 30 2018, 18:56:54
Go to the top of the page
  Insert nick Quick quote
+Quote Post
post Jan 16 2018, 22:35:41
Post #9

Четыре Литра
****
Group: Металариец
Posts: 358
Releases: 1
From: Ingrija
On Forums: 12 years 2 weeks
Thanks: 314 time(s)
Russian Federation


ЦИТАТА(Aresson @ Jan 16 2018, 22:07:38) *
шо це теке?


готега для малолетних рейверш.
Go to the top of the page
  Insert nick Quick quote
+Quote Post
post Jan 16 2018, 22:54:01
Post #10

Правь статус, ####!111
**************
Group: Металариец
Posts: 2,376
Releases: 0
From: Buffalo
On Forums: 10 years 8 months
Thanks: 1443 time(s)
United States


ЦИТАТА(aesteticvice @ Jan 16 2018, 22:25:50) *
пока до Jan 30 2018, 18:56:54

Маловато. В прошлом году его хорошо на несколько месяцев отправили подумать, этого раба флуда.
Go to the top of the page
  Insert nick Quick quote
+Quote Post

Reply to this topicStart new topic
1 User(s) are reading this topic (1 Guests and 0 Anonymous Users)
0 Members:

 



- Lo-Fi Version Support form
Copyrights and abuse reports form
Time is now: 14th December 2019 - 12:26:03