Welcome Guest ( Log In | Register )

> 

Здесь релизы с живыми прямыми ссылками на lossless

> Perverted Ceremony - Sabbat Of Behezaël (2017), Black/Death Metal
post Jan 18 2018, 11:33:57
Post #1

Аннигилятор пивА
Group Icon
Group: V.I.P
Posts: 52,383
Releases: 16545
From: Koenigsberg - TILZIT
On Forums: 16 years 3 months
Thanks: 369891 time(s)
Russian Federation


(IMG:https://metalarea.org/images/audiocovers/2018_Jan/acov_tid300672_thumb.jpg)

*Artist: Perverted Ceremony
*Album: Sabbat Of Behezaël
*Year: 2017
*Genre: Black/Death Metal
*Country: Belgium (IMG:https://metalarea.org/forum/style_images/flags/Belgium.png)
*Format: mp3@CBR320kbps
*Size: 93MB

Tracklist:
1. Intro 01:29
2. Black Fur Demoniac 03:39
3. Necrolactation Unborn Goat 06:00
4. Woods Of The Black Offering 04:31
5. Crypt Of Behezaël 03:10
6. Whips Of Impurity 05:24
7. Fullmoon Sacrament 05:11
8. Dark Necromancy 05:20
9. Nightmare Consecration 06:03
******************************
Total playing time: 40:47



Extended info
CD Rip
Morbid Messiah - Drums, Vocals (Moenen of Xezbeth)
Baron Cimeterre - Guitars, Bass


Technical info
(IMG:https://metalarea.org/images/spectrogram/2018_Jan/2f81dc2b881d35ef1b3fac7fee776d78.png)
Input File: 02 Black Fur Demoniac.mp3
Channels : 2
Sample Rate : 44100
Precision : 16-bit
Duration : 00:03:39.71 = 9689343 samples = 16478.5 CDDA sectors
File Size : 8.79M
Bit Rate : 320k
Sample Encoding: MPEG audio (layer I, II or III)
Comments :
Title=Black Fur Demoniac
Artist=Perverted Ceremony
Album=Sabbat Of BehezaГ«l
Tracknumber=2
Year=2017
Genre=Black Metal



Register


Go to the top of the page
  Insert nick Quick quote
+Quote Post
 
Start new topic
Replies (1 - 9)
post Jan 18 2018, 13:02:57
Post #2

Аннигилятор пивА
Group Icon
Group: V.I.P
Posts: 52,383
Releases: 16545
From: Koenigsberg - TILZIT
On Forums: 16 years 3 months
Thanks: 369891 time(s)
Russian Federation


mirror
Register


Go to the top of the page
  Insert nick Quick quote
+Quote Post
post Jan 18 2018, 17:19:10
Post #3

Аннигилятор пивА
Group Icon
Group: V.I.P
Posts: 52,383
Releases: 16545
From: Koenigsberg - TILZIT
On Forums: 16 years 3 months
Thanks: 369891 time(s)
Russian Federation


бомбезный олдскул, тяжеловесный, мрачный, как из правильных катакомб вылезший, я чет как залип и пока не завершился не мог выключить (IMG:style_emoticons/default/1488.gif) надо отметить для себя сие произведение, миник такой же
Go to the top of the page
  Insert nick Quick quote
+Quote Post
post Jan 18 2018, 19:56:47
Post #4

Absorbence
**************
Group: Металариец
Posts: 2,136
Releases: 424
From: Vastland Abyss of Cthulhu
On Forums: 15 years 10 months
Thanks: 7266 time(s)
United States


отличный материал
Go to the top of the page
  Insert nick Quick quote
+Quote Post
post Jan 19 2018, 06:55:51
Post #5

De Mysteriis Dom Sathanas
**************
Group: Металариец
Posts: 4,479
Releases: 64
From: Doom
On Forums: 14 years 2 months
Thanks: 3879 time(s)
Russian Federation


Так был уже в 240, не новинка
Go to the top of the page
  Insert nick Quick quote
+Quote Post
post Jan 19 2018, 09:25:45
Post #6

Common dweller of hell
**************
Group: Металариец
Posts: 4,383
Releases: 12
From: Dnipro
On Forums: 14 years 2 months
Thanks: 1734 time(s)
Ukraine


По моему это полное убожество (IMG:style_emoticons/default/22.gif)


Thanks:
Go to the top of the page
  Insert nick Quick quote
+Quote Post
post Jan 24 2018, 10:17:42
Post #7

Четыре Литра
****
Group: Металариец
Posts: 354
Releases: 0
On Forums: 4 years 11 months
Thanks: 177 time(s)
Unknown


Вроде бы банда старается все делать по олдскулу, но первое впечатление какое то смазанное получилось.
Надо еще попробовать их послушать. Все таки их демка мне понравилась больше
Go to the top of the page
  Insert nick Quick quote
+Quote Post
post Dec 9 2018, 22:39:36
Post #8

Восемь Литров
********
Group: Металариец
Posts: 821
Releases: 1
On Forums: 5 years 10 months
Thanks: 171 time(s)
Unknown


Re-upload please.
Go to the top of the page
  Insert nick Quick quote
+Quote Post
post Dec 14 2018, 07:09:31
Post #9

Правь статус, ####!111
Group Icon
Group: S-moderation team
Posts: 22,058
Releases: 1443
On Forums: 11 years 6 months
Thanks: 112915 time(s)
Unknown


Register



Go to the top of the page
  Insert nick Quick quote
+Quote Post
post May 15 2022, 03:18:38
Post #10

Маньяк
**********
Group: Металариец
Posts: 1,237
Releases: 10
On Forums: 13 years 8 months
Thanks: 172 time(s)
Germany


Please, re-upload mp3 320
Go to the top of the page
  Insert nick Quick quote
+Quote Post

Reply to this topicStart new topic
1 User(s) are reading this topic (1 Guests and 0 Anonymous Users)
0 Members:

 



- Lo-Fi Version Support form
Copyrights and abuse reports form
Time is now: 25th September 2022 - 12:23:56