Welcome Guest ( Log In | Register )

> Brahdr'Uhz - The End Of All [ep] (2018), Black Metal
post Jan 21 2018, 12:41:07
Post #1

Восемь Литров
********
Group: Металариец
Posts: 857
Releases: 163
On Forums: 11 years 4 months
Thanks: 2143 time(s)
Albania


(IMG:https://metalarea.org/images/audiocovers/2018_Jan/acov_tid300813_thumb.jpg)

*Artist: Brahdr'Uhz
*Album: The End Of All [ep]
*Year: 2018
*Genre: Black Metal
*Country: Switzerland (IMG:https://metalarea.org/forum/style_images/flags/Switzerland.png)
*Format: mp3@CBR128kbps (IMG:https://metalarea.org/images/bit_low.gif)
*Size: 16MB

Tracklist:
1.Stalegrada 04:37
2.Morkestunden 07:05
3.Ertestaldt 06:00
******************************
Total playing time: 17:42



Technical info
(IMG:https://metalarea.org/images/spectrogram/2018_Jan/8712eebbcace8d68dcda8aab1df1f7d4.png)
Input File: 1 - stalegrada.mp3
Channels : 2
Sample Rate : 44100
Precision : 16-bit
Duration : 00:04:37.94 = 12257330 samples = 20845.8 CDDA sectors
File Size : 4.45M
Bit Rate : 128k
Sample Encoding: MPEG audio (layer I, II or III)



Register


Go to the top of the page
  Insert nick Quick quote
+Quote Post
 
Start new topic
Replies (1 - 3)
post Jul 23 2021, 09:56:30
Post #2

The Angel Of Death
**************
Group: Металариец
Posts: 6,221
Releases: 52
From: Луганск, 13 регион, экс-404
On Forums: 16 years 2 months
Thanks: 2227 time(s)
Papua New Guinea


please re-up
Go to the top of the page
  Insert nick Quick quote
+Quote Post
post Jul 25 2021, 09:31:15
Post #3

Group: Подсевший
Posts: 42
Releases: 0
On Forums: 6 months 2 weeks
Thanks: 33 time(s)
Unknown


я вообще не понимаю зачем было нужно тащить сюда костыли с бандкамп.
Go to the top of the page
  Insert nick Quick quote
+Quote Post
post Jul 25 2021, 09:58:53
Post #4

Group: Подсевший
Posts: 42
Releases: 0
On Forums: 6 months 2 weeks
Thanks: 33 time(s)
Unknown


тоже не фонотека
Register


Go to the top of the page
  Insert nick Quick quote
+Quote Post

Reply to this topicStart new topic
1 User(s) are reading this topic (1 Guests and 0 Anonymous Users)
0 Members:

 



- Lo-Fi Version Support form
Copyrights and abuse reports form
Time is now: 28th January 2022 - 23:34:24