Welcome Guest ( Log In | Register )

Объявления

* gmail.com упорно продолжает считать почту с нас "unsolicited" и отбивает в том числе и письма активации, поэтому просьба использовать альтернативные почтовые ящики.
------------
* gmail.com continues reject all mail from us as "unsolicited" (activation mails too) therefore please use alternate mail servers.
> V:28 - Live In Arendal 2008 [live] (2018), Atmospheric Black/Death Metal With Electronic Influences
post Jan 21 2018, 17:57:49
Post #1

Правь статус, ####!111
**************
Group: Металариец
Posts: 7,694
Releases: 7036
From: Одесса
On Forums: 16 years 1 month
Thanks: 82098 time(s)
Ukraine


(IMG:http://metalarea.org/images/audiocovers/2018_Jan/acov_tid300822_thumb.jpg)

*Artist: V:28
*Album: Live In Arendal 2008 [live]
*Year: 2018
*Genre: Atmospheric Black/Death Metal With Electronic Influences
*Country: Norway (IMG:http://metalarea.org/forum/style_images/flags/Norway.png)
*Format: mp3@CBR320kbps
*Size: 95MB

Tracklist:
1. Perspective (Live In Arendal 2008) 05:39
2. Soldier Of The Neverending War (Live In Arendal 2008) 05:18
3. A Prophecy Written In Uranium (Live In Arendal 2008) 05:25
4. DeConstructor (Live In Arendal 2008) 04:12
5. World Wide Bombing Day (Live In Arendal 2008) 05:38
6. Desert Generator (Live In Arendal 2008) 04:51
7. When Entropy Decreases (Live In Arendal 2008) 08:14
******************************
Total playing time: 39:17


Metal-archives

Extended info
Line - up:

Atle Johansen - Bass (ex-Ancestral Legacy)
Kristoffer Oustad - Guitars, Programming (ex-V:O:I:D)
Eddie Risdal - Vocals, Guitars (Ancestral Legacy, Legacy of Emptiness, ex-Sykdom, ex-V:O:I:D, ex-Misvita, ex-Permafrost)
Børre Iversen - Drums (ex-Ancestral Legacy)

(IMG:https://www.metal-archives.com/images/1/6/4/7/16470_photo.jpg)


Technical info
(IMG:http://metalarea.org/images/spectrogram/2018_Jan/43b97ce64510cbe23eaa5164a5d991c7.png)
Input File: 07. When Entropy Decreases (Live In Arendal 2008).mp3
Channels : 2
Sample Rate : 48000
Precision : 16-bit
Duration : 00:08:14.62 = 23741712 samples ~ 37096.4 CDDA sectors
File Size : 19.8M
Bit Rate : 320k
Sample Encoding: MPEG audio (layer I, II or III)
Comments :
Title=When Entropy Decreases (Live In Arendal 2008)
Artist=V:28
Album=Live In Arendal 2008 (Live)
Tracknumber=7
Year=2018
Genre=Atmospheric Black / Death Metal with Electronic Influences



Register


Go to the top of the page
  Insert nick Quick quote
+Quote Post
 
Start new topic
Replies (1 - 1)
post Jan 24 2018, 13:26:19
Post #2

Четыре Литра
****
Group: Металариец
Posts: 305
Releases: 1
On Forums: 14 years 8 months
Thanks: 111 time(s)
Russian Federation


Ого они еще подают признаки жизни!?
Рад!
Но лучше бы новый материал выпустили!


Thanks:
(1) Chasm,
Go to the top of the page
  Insert nick Quick quote
+Quote Post

Reply to this topicStart new topic
2 User(s) are reading this topic (2 Guests and 0 Anonymous Users)
0 Members:

 



- Lo-Fi Version Support form
Copyrights and abuse reports form
Time is now: 15th July 2024 - 21:31:32