Welcome Guest ( Log In | Register )

> Grand Finale - Descent With Modification (2018), Symphonic Power Metal
post Jan 24 2018, 11:08:44
Post #1

Аннигилятор пивА
Group Icon
Group: V.I.P
Posts: 52,360
Releases: 16547
From: Koenigsberg - TILZIT
On Forums: 15 years 11 months
Thanks: 369369 time(s)
Russian Federation


(IMG:https://metalarea.org/images/audiocovers/2018_Jan/acov_tid300929_thumb.jpg)

*Artist: Grand Finale
*Album: Descent With Modification
*Year: 2018
*Genre: Symphonic Power Metal
*Country: Japan (IMG:https://metalarea.org/forum/style_images/flags/Japan.png)
*Format: mp3@CBR320kbps
*Size: 120MB

Tracklist:
01. The Master Of My Fate
02. Fanatic
03. Kodoku No Hana
04. Nobody Knows
05. Promise
06. Innocence
07. With Wolves
08. Perfect World
09. Now Or Never
10. Epilogue
******************************
Total playing time: 52:21

Extended info


Technical info
(IMG:https://metalarea.org/images/spectrogram/2018_Jan/cbf727fdbcba4ba135711dceb90a664f.png)
Input File: 02 - Fanatic.mp3
Channels : 2
Sample Rate : 44100
Precision : 16-bit
Duration : 00:04:58.59 = 13167687 samples = 22394 CDDA sectors
File Size : 11.9M
Bit Rate : 320k
Sample Encoding: MPEG audio (layer I, II or III)
Comments :
Title=Fanatic
Artist=Grand Finale
Album=Descent with Modification
Tracknumber=2/10
Year=2018



Register


Go to the top of the page
  Insert nick Quick quote
+Quote Post
 
Start new topic
Replies (1 - 4)
post Jan 27 2018, 18:39:42
Post #2

Перевозчик
**************
Group: Металариец
Posts: 3,411
Releases: 0
On Forums: 13 years 10 months
Thanks: 759 time(s)
Russian Federation


Довольно редкий для японцев случай безголосой вокалистки.
Go to the top of the page
  Insert nick Quick quote
+Quote Post
post Nov 25 2021, 02:55:54
Post #3

Два Литра
**
Group: Завсегдатай
Posts: 137
Releases: 0
From: Euskadi
On Forums: 3 years 11 months
Thanks: 12 time(s)
Spain


Links?
Go to the top of the page
  Insert nick Quick quote
+Quote Post
post Nov 25 2021, 15:01:20
Post #4

Два Литра
**
Group: Завсегдатай
Posts: 131
Releases: 0
On Forums: 13 years 2 weeks
Thanks: 76 time(s)
Bulgaria


https://ulozto.net/file/hApvRt318UZP/grand-...J9TLKOIqwp3AD==


Thanks:
(1) wreak,
Go to the top of the page
  Insert nick Quick quote
+Quote Post
post Nov 25 2021, 17:58:54
Post #5

Два Литра
**
Group: Завсегдатай
Posts: 137
Releases: 0
From: Euskadi
On Forums: 3 years 11 months
Thanks: 12 time(s)
Spain


Thanks
Go to the top of the page
  Insert nick Quick quote
+Quote Post

Reply to this topicStart new topic
1 User(s) are reading this topic (1 Guests and 0 Anonymous Users)
0 Members:

 



- Lo-Fi Version Support form
Copyrights and abuse reports form
Time is now: 25th May 2022 - 20:26:07