Welcome Guest ( Log In | Register )

> Methodical Perversion - No Offense (2017), Death Metal/Grindcore
post Jan 24 2018, 19:48:48
Post #1

Правь статус, ####!111
**************
Group: Металариец
Posts: 5,424
Releases: 4962
From: Одесса
On Forums: 14 years 3 months
Thanks: 58387 time(s)
Ukraine


(IMG:http://metalarea.org/images/audiocovers/2018_Jan/acov_tid300961_thumb.jpg)

*Artist: Methodical Perversion
*Album: No Offense
*Year: 2017
*Genre: Death Metal/Grindcore
*Country: Unknown (IMG:http://metalarea.org/forum/style_images/flags/Unknown.png)
*Format: mp3@CBR128kbps (IMG:http://metalarea.org/images/bit_low.gif)
*Size: 33MB

Tracklist:
1. Admit It, You're a Paedophile 00:28
2. Greenpeace Is Fucking Stupid 00:26
3. I Locked a Vegetarian in a Slaughterhouse 01:01
4. [CENSORED] Is the Coolest Guy on Earth 00:44
5. [CENSORED] Is a Waterbuffalo 00:15
6. Communism Is Dumb, It Attracts a Lot of Fucking Idiots 00:28
7. Harold Shipman Is Cool 00:31
8. I Remember You from a Feminist Rally 01:04
9. Your Band Sucks 00:41
10. I Saw Your Face on the Front of Caravan Weekly 00:55
11. I Lured a Homo into a Neo-Nazi Meeting 01:27
12. I Sent Pictures of the Gary Glitter Trial to You've Been Framed 00:29
13. I Wish I Could Be in Limp Bizkit 01:23
14. I Like Sigur Ros Because They Remind Me of Child Abuse Adverts 03:50
15. I'm Glad You Got Raped You Fucking Goth 01:02
16. I'm Going to Set Up Marriage Counselling in Moscow 01:25
17. Korn Are the Gayest Band on Earth 00:34
18. Motor Neuron Disease Is Pretty Funny 00:40
19. No-one Likes You, You Dumb Fucking Goth 00:35
20. You Have No Friends 01:07
21. Skaters Are Stupid Cunts 01:22
22. Snuff Movies Are Brilliant 00:29
23. I Think Everyone Should Have a Positive Attitude 01:19
24. Your Parents Drowned You for a Reason 01:19
25. You're Kids Are in My Attic 01:31
26. Cultural Appropriation 00:47
27. You're a Non-Binary Transgender Cunt 02:33
28. Suicide Rates Have Risen Since I Joined the Samaritans 01:21
29. Perseverance 03:31
******************************
Total playing time: 33:17



Extended info
Line - up:

Neil McIntosh - All instruments
Michael Bain - Lyrics (track 29), Vocals (Blastomycosis, Mors Verum)
Colin Anderson - Lyrics

(IMG:https://f4.bcbits.com/img/0011379059_10.jpg)


Technical info
(IMG:http://metalarea.org/images/spectrogram/2018_Jan/999822062377ed444a8cb5d9fc5c1ca3.png)
Input File: 24. Your Parents Drowned You For A Reason 25. You\'re Kids Are In My Attic.mp3
Channels : 2
Sample Rate : 44100
Precision : 16-bit
Duration : 00:01:19.74 = 3516402 samples = 5980.28 CDDA sectors
File Size : 1.28M
Bit Rate : 128k
Sample Encoding: MPEG audio (layer I, II or III)
Comments :
Title=Your Parents Drowned You For A Reason 25. You're Kids Are In My Attic
Artist=Methodical Perversion
Album=No Offense
Tracknumber=24
Year=2017
Genre=Death Metal / Grindcore



Register


Thanks:
Go to the top of the page
  Insert nick Quick quote
+Quote Post
 
Start new topic
Replies (1 - 1)
post Aug 6 2022, 15:16:12
Post #2

Два Литра
**
Group: Завсегдатай
Posts: 150
Releases: 0
On Forums: 13 years 3 months
Thanks: 3 time(s)
Russian Federation


Please Reupload¡¡¡
Go to the top of the page
  Insert nick Quick quote
+Quote Post

Reply to this topicStart new topic
1 User(s) are reading this topic (1 Guests and 0 Anonymous Users)
0 Members:

 



- Lo-Fi Version Support form
Copyrights and abuse reports form
Time is now: 25th September 2022 - 05:34:53