Welcome Guest ( Log In | Register )

 
Reply to this topicStart new topic
> Taken By The Tide - Revenge (2018), Technical Metalcore
post Jan 26 2018, 18:31:00
Post #1

Правь статус, ####!111
**************
Group: Металариец
Posts: 7,277
Releases: 6656
From: Одесса
On Forums: 15 years 8 months
Thanks: 77506 time(s)
Ukraine


(IMG:http://metalarea.org/images/audiocovers/2018_Jan/acov_tid301050_thumb.jpg)

*Artist: Taken By The Tide
*Album: Revenge
*Year: 2018
*Genre: Technical Metalcore
*Country: United Kingdom (IMG:http://metalarea.org/forum/style_images/flags/United%20Kingdom.png)
*Format: mp3@CBR320kbps
*Size: 49MB

Tracklist:
1. The Organs Are Mine
2. Grave Lessons
3. Moloch
4. Revenge Overture
5. Anfang Extinction
6. Now I Am Become Death
******************************
Total playing time: 22:12

Metal-archives

(IMG:http://metalarea.org/images/youtube.png)

Extended info
Line - up:

Andrew Workman - Bass (Beyond Grace, ex-Threnody, ex-Bloodguard)
Eric Revill - Guitars
Martin Clarke - Guitars
Phil Illsley - Vocals (Abduction, ex-Lordaeron, Death Tripper, ex-Cruel Humanity)
Ed Gorrod - Drums (Beyond Grace, ex-Threnody, ex-Bloodguard)

(IMG:https://f4.bcbits.com/img/0008309377_10.jpg)


Technical info
(IMG:http://metalarea.org/images/spectrogram/2018_Jan/fe393d05071478640d18b748bbbc0997.png)
Input File: 2 Grave Lessons.mp3
Channels : 2
Sample Rate : 44100
Precision : 16-bit
Duration : 00:04:38.15 = 12266591 samples = 20861.5 CDDA sectors
File Size : 11.1M
Bit Rate : 320k
Sample Encoding: MPEG audio (layer I, II or III)
Comments :
Title=Grave Lessons
Artist=Taken By The Tide
Album=Revenge
Tracknumber=2
Year=2018
Genre=Technical Metalcore



Register


Go to the top of the page
  Insert nick Quick quote
+Quote Post

Reply to this topicStart new topic
1 User(s) are reading this topic (1 Guests and 0 Anonymous Users)
0 Members:

 



- Lo-Fi Version Support form
Copyrights and abuse reports form
Time is now: 29th February 2024 - 03:38:47