Welcome Guest ( Log In | Register )

> Miserist - Miserist [ep] (2017), Black/Death Metal
post Jan 28 2018, 18:43:35
Post #1

Правь статус, ####!111
**************
Group: Металариец
Posts: 4,336
Releases: 3979
From: Одесса
On Forums: 13 years 4 months
Thanks: 43947 time(s)
Ukraine


(IMG:http://metalarea.org/images/audiocovers/2018_Jan/acov_tid301162_thumb.jpg)

*Artist: Miserist
*Album: Miserist [ep]
*Year: 2017
*Genre: Black/Death Metal
*Country: Australia (IMG:http://metalarea.org/forum/style_images/flags/Australia.png)
*Format: mp3@CBR320kbps
*Size: 71MB

Tracklist:
1. Skin, Mold & Flame 02:53
2. Miserist 02:56
3. VIII 04:21
4. Horror Infinitum 04:47
5. Lung Rust 05:11
6. Narikuntu 09:36
******************************
Total playing time: 29:44



Extended info
Line - up:

Ryan H. - All instruments


Technical info
(IMG:http://metalarea.org/images/spectrogram/2018_Jan/229252ac68fec205e386feb75a612dcb.png)
Input File: 04. Horror Infinitum.mp3
Channels : 2
Sample Rate : 48000
Precision : 16-bit
Duration : 00:04:47.31 = 13790736 samples ~ 21548 CDDA sectors
File Size : 11.6M
Bit Rate : 322k
Sample Encoding: MPEG audio (layer I, II or III)
Comments :
Title=Horror Infinitum
Artist=Miserist
Album=Miserist (EP)
Tracknumber=4
Year=2017
Genre=Black / Death Metal



Register


Go to the top of the page
  Insert nick Quick quote
+Quote Post
 
Start new topic
Replies (1 - 1)
post Yesterday, 03:23:40
Post #2

aggresive exumator!
**********
Group: Металариец
Posts: 1,374
Releases: 0
On Forums: 10 years 3 weeks
Thanks: 46 time(s)
Unknown


reupload please
Go to the top of the page
  Insert nick Quick quote
+Quote Post

Reply to this topicStart new topic
1 User(s) are reading this topic (1 Guests and 0 Anonymous Users)
0 Members:

 



- Lo-Fi Version Support form
Copyrights and abuse reports form
Time is now: 15th October 2021 - 20:56:57