Welcome Guest ( Log In | Register )

> Pagan Eternal - Goatlord Devastation [demo] (2001), Black Metal
post Feb 2 2018, 11:23:01
Post #1

Group Icon
Group: S-moderation team
Posts: 21,510
Releases: 1443
From: Zagreb
On Forums: 10 years 5 months
Thanks: 100001 time(s)
Croatia


(IMG:http://metalarea.org/images/audiocovers/2018_Feb/acov_tid301368_thumb.jpg)

*Artist: Pagan Eternal
*Album: Goatlord Devastation [demo]
*Year: 2001
*Genre: Black Metal
*Country: France (IMG:http://metalarea.org/forum/style_images/flags/France.png)
*Format: mp3@CBR320kbps
*Size: 69MB

Tracklist:
1. The Mirror of Apocalypse 00:50
2. Celebration of the Nightrealm 06:33
3. Of Dark and Eternal Night 05:00
4. Remembrance 08:51
5. A Shade Within 08:34
******************************
Total playing time: 29:48

Extended info
Self-released tape limited to 333 hand-numbered copies.
Tape rip + Scans.


Technical info
(IMG:http://metalarea.org/images/spectrogram/2018_Feb/62b002b01fd3af5d72b09e354df85410.png)
Input File: 02 Celebration of the Nightrealm.mp3
Channels : 2
Sample Rate : 44100
Precision : 16-bit
Duration : 00:06:33.95 = 17373239 samples = 29546.3 CDDA sectors
File Size : 15.8M
Bit Rate : 320k
Sample Encoding: MPEG audio (layer I, II or III)
Comments :
Title=Celebration of the Nightrealm
Artist=Pagan Eternal
Album=Goatlord Devastation
Tracknumber=2
Year=2001
Genre=Black Metal



Register


Go to the top of the page
  Insert nick Quick quote
+Quote Post
 
Start new topic
Replies (1 - 3)
post Feb 2 2018, 17:32:03
Post #2

Groove/Industrial/Aggressive Nu Metal
**************
Group: Металариец
Posts: 2,642
Releases: 65
From: Technical Death из 90-х
On Forums: 11 years 2 weeks
Thanks: 6345 time(s)
Unknown


Borderline1991
Thanks a lot for quality! I had only 128 kbps before. Great demo!


Thanks:
Go to the top of the page
  Insert nick Quick quote
+Quote Post
post Mar 21 2019, 20:17:49
Post #3

Black is beautiful
***********
Group: Металариец
Posts: 1,866
Releases: 4
On Forums: 9 years 5 months
Thanks: 388 time(s)
Unknown


QUOTE(SyncestrA @ Feb 2 2018, 17:32:03) *
Borderline1991
Thanks a lot for quality! I had only 128 kbps before. Great demo!


Funny.
With this tape, it does not matter if it's 128 or 320.
The quality of the tape is not big.


Thanks:
Go to the top of the page
  Insert nick Quick quote
+Quote Post
post Mar 22 2019, 06:23:15
Post #4

Group Icon
Group: S-moderation team
Posts: 21,510
Releases: 1443
From: Zagreb
On Forums: 10 years 5 months
Thanks: 100001 time(s)
Croatia


QUOTE(An225 @ Mar 21 2019, 20:17:49) *
Funny.
With this tape, it does not matter if it's 128 or 320.
The quality of the tape is not big.
I should had probably exported the rip of this tape in CBR@192, higher than that is really almost pointless because of the nature of the item - it's an old, cheap tape of low quality (which is normal for tapes of that era in this kind of BM music). Rips like this are rarely worth keeping in lossless or very high bitrate lossy. I probably just exported in 320 because people on metalarea seem to like music @ 320 (IMG:style_emoticons/default/smile1.gif)

Still, I find lower quality sound to be a part of it's charm, real Black Metal was never about good production and sound, it was about passion, simplicity and honesty and that's what this demo is. I think Pagan Eternal is a good band.


Thanks:
Go to the top of the page
  Insert nick Quick quote
+Quote Post

Reply to this topicStart new topic
2 User(s) are reading this topic (2 Guests and 0 Anonymous Users)
0 Members:

 



- Lo-Fi Version Support form
Copyrights and abuse reports form
Time is now: 2nd August 2021 - 13:52:43