Welcome Guest ( Log In | Register )

> Massacrator - Battle Rages On [ep] (2018), Old School Thrash/Death Metal
post Feb 8 2018, 05:49:18
Post #1

Правь статус, ####!111
**************
Group: Металариец
Posts: 30,923
Releases: 22794
From: Г.Харьков
On Forums: 10 years 6 months
Thanks: 477015 time(s)
Unknown


(IMG:https://metalarea.org/images/audiocovers/2018_Feb/acov_tid301628_thumb.jpg)

*Artist: Massacrator
*Album: Battle Rages On [ep]
*Year: 2018
*Genre: Old School Thrash/Death Metal
*Country: Mexico (IMG:https://metalarea.org/forum/style_images/flags/Mexico.png)
*Format: mp3@CBR320kbps
*Size: 46MB

Tracklist:
1. Battlefield (Album Version) 05:05
2. Human Timebomb (Album Version) 05:53
3. El Desmadre (Brujeria cover) 02:12
4. Subtraction (Sepultura cover) 04:58
******************************
Total playing time: 18:08




Extended info
Martin Bass
Julio Drums
See also: Betrayer God, Disgraced
Beto Guitars
See also: Toxic Rain
Victor Guitars
See also: Toxic Rain
Cristian Vocals


Technical info
(IMG:https://metalarea.org/images/spectrogram/2018_Feb/ab0d185e23ec0c6107df03d7fb0a5399.png)
Input File: Massacrator - Battle Rages On - 02 Human Timebomb (Album Version).mp3
Channels : 2
Sample Rate : 44100
Precision : 16-bit
Duration : 00:05:53.34 = 15582250 samples = 26500.4 CDDA sectors
File Size : 14.3M
Bit Rate : 325k
Sample Encoding: MPEG audio (layer I, II or III)
Comments :
Title=Human Timebomb (Album Version)
Artist=Massacrator
Album=Battle Rages On
Tracknumber=2
Year=2018



Register


Go to the top of the page
  Insert nick Quick quote
+Quote Post
 
Start new topic
Replies (1 - 8)
post Feb 12 2018, 14:23:28
Post #2

Четыре Литра
****
Group: Металариец
Posts: 392
Releases: 3
From: Екатеринбург
On Forums: 12 years 7 months
Thanks: 50 time(s)
Russian Federation


Охренительно (IMG:style_emoticons/default/metaler.gif)
Go to the top of the page
  Insert nick Quick quote
+Quote Post
post Feb 12 2018, 16:02:55
Post #3

_ - = # Thrashogolic # = - _ ... а давайте поржём все вместе
**************
Group: Металариец
Posts: 21,095
Releases: 4442
From: 404
On Forums: 12 years 5 months
Thanks: 28256 time(s)
Ukraine


ЦИТАТА(bandcamp page info)
This is an EP containing two album version tunes from the first album, "Everlasting Nightmare" and two cover versions from a pair of our biggest influences: Brujeria & Sepultura. The four songs are available for free download and only 50 hand numbered copies were made of this release. Again; this is a totally DIY material.

Massacrator - Everlasting Nightmare (2016)


Thanks:
Go to the top of the page
  Insert nick Quick quote
+Quote Post
post Feb 12 2018, 16:25:15
Post #4

Правь статус, ####!111
**************
Group: Металариец
Posts: 3,680
Releases: 13
From: South Of Heaven
On Forums: 12 years 2 months
Thanks: 4385 time(s)
Russian Federation




Go to the top of the page
  Insert nick Quick quote
+Quote Post
post Feb 14 2018, 19:32:28
Post #5

brutalcesar
**************
Group: Металариец
Posts: 18,593
Releases: 76
From: Рязань
On Forums: 13 years 10 months
Thanks: 10857 time(s)
Russian Federation


Суховаты каверки...
Go to the top of the page
  Insert nick Quick quote
+Quote Post
post Feb 15 2018, 00:44:46
Post #6

Group: Подсевший
Posts: 38
Releases: 0
From: Београд, Србија
On Forums: 13 years 8 months
Thanks: 10 time(s)
Serbia


Одлично, хвала!
Go to the top of the page
  Insert nick Quick quote
+Quote Post
post Nov 8 2021, 17:47:22    Сейчас играет: Re-up please ;-)
Post #7

Правь статус, ####!111
**************
Group: Металариец
Posts: 2,604
Releases: 0
From: Sofia
On Forums: 15 years 2 months
Thanks: 87 time(s)
Bulgaria


Please re-up (IMG:style_emoticons/default/pray.gif) (IMG:style_emoticons/default/pray.gif)
Go to the top of the page
  Insert nick Quick quote
+Quote Post
post Nov 12 2021, 10:34:42
Post #8

Правь статус, ####!111
Group Icon
Group: S-moderation team
Posts: 22,058
Releases: 1443
On Forums: 11 years 9 months
Thanks: 114601 time(s)
Unknown


Register


Go to the top of the page
  Insert nick Quick quote
+Quote Post
post Nov 12 2021, 15:12:42
Post #9

Правь статус, ####!111
**************
Group: Металариец
Posts: 2,604
Releases: 0
From: Sofia
On Forums: 15 years 2 months
Thanks: 87 time(s)
Bulgaria


Thank you very much ! (IMG:style_emoticons/default/crazy.gif) (IMG:style_emoticons/default/crazy.gif) (IMG:style_emoticons/default/9.gif) (IMG:style_emoticons/default/9.gif)

QUOTE(Moldavite @ Nov 12 2021, 09:34:42) *

Go to the top of the page
  Insert nick Quick quote
+Quote Post

Reply to this topicStart new topic
2 User(s) are reading this topic (2 Guests and 0 Anonymous Users)
0 Members:

 



- Lo-Fi Version Support form
Copyrights and abuse reports form
Time is now: 3rd December 2022 - 17:04:45