Welcome Guest ( Log In | Register )

Объявления

* gmail.com упорно продолжает считать почту с нас "unsolicited" и отбивает в том числе и письма активации, поэтому просьба использовать альтернативные почтовые ящики.
------------
* gmail.com continues reject all mail from us as "unsolicited" (activation mails too) therefore please use alternate mail servers.
 
Reply to this topicStart new topic
> Valiant - A Timeworn Oath [ep] (2018), Epic Atmospheric Black Metal (D5)
post Feb 16 2018, 16:49:04
Post #1

Правь статус, ####!111
**************
Group: Металариец
Posts: 7,620
Releases: 6969
From: Одесса
On Forums: 16 years 2 weeks
Thanks: 81312 time(s)
Ukraine


(IMG:http://metalarea.org/images/audiocovers/2018_Feb/acov_tid302071_thumb.jpg)

*Artist: Valiant
*Album: A Timeworn Oath [ep]
*Year: 2018
*Genre: Epic Atmospheric Black Metal
*Country: United States (IMG:http://metalarea.org/forum/style_images/flags/United%20States.png)
*Format: mp3@CBR320kbps
*Size: 74MB

Tracklist:
1. As Echoes of Dreams
2. Distant Lands
3. Oath to Destiny
4. Forlorn Shadow
5. In the Midst of Worlds
******************************
Total playing time: 31:29



Extended info
Line - up:

Archon - All instruments, Vocals (Highborne)

(IMG:https://f4.bcbits.com/img/0010999554_10.jpg)


Technical info
(IMG:http://metalarea.org/images/spectrogram/2018_Feb/233aea34a7bdb5d8c5d489c69c9e6977.png)
Input File: 01. As Echoes of Dreams.mp3
Channels : 2
Sample Rate : 48000
Precision : 16-bit
Duration : 00:06:46.90 = 19531152 samples ~ 30517.4 CDDA sectors
File Size : 16.3M
Bit Rate : 320k
Sample Encoding: MPEG audio (layer I, II or III)
Comments :
Title=As Echoes of Dreams
Artist=Valiant
Album=A Timeworn Oath (EP)
Tracknumber=1
Year=2018
Genre=Epic Atmospheric Black Metal



Register


Go to the top of the page
  Insert nick Quick quote
+Quote Post

Reply to this topicStart new topic
1 User(s) are reading this topic (1 Guests and 0 Anonymous Users)
0 Members:

 



- Lo-Fi Version Support form
Copyrights and abuse reports form
Time is now: 21st June 2024 - 07:40:17