Welcome Guest ( Log In | Register )

> Eigenlicht - Self-Annihilating Consciousness (2018), Atmospheric Black Metal
post Feb 17 2018, 08:45:58
Post #1

Аннигилятор пивА
Group Icon
Group: V.I.P
Posts: 52,360
Releases: 16550
From: Koenigsberg - TILZIT
On Forums: 15 years 3 weeks
Thanks: 367723 time(s)
Russian Federation


(IMG:https://metalarea.org/images/audiocovers/2018_Feb/acov_tid302110_thumb.jpg)

*Artist: Eigenlicht
*Album: Self-Annihilating Consciousness
*Year: 2018
*Genre: Atmospheric Black Metal
*Country: United States (IMG:https://metalarea.org/forum/style_images/flags/United%20States.png)
*Format: mp3@CBR320kbps
*Size: 118MB

Tracklist:
1. There Lies Already the Shadow of Annihilation 01:55
2. Hagia Sophia 13:43
3. Labrys 11:51
4. Deifugal Force 13:25
5. Berserker 11:03
******************************
Total playing time: 51:59



Extended info
Cascadian Black Metal

Johnny Delacy - Drums (Fauna, Sadhaka, ex-Threnos, Ekstasis, Fearthainne)
Yianna Bekris - Guitars (Sadhaka, Vradiazei)
Mara Winter - Keyboards, Vocals, Flute (Ekstasis)
Ray Hawes - Vocals, Guitars (Skagos, ex-Kamlaniye, Ekstasis, ex-Fauna, ex-Iskra, ex-Apocalypta)


Technical info
(IMG:https://metalarea.org/images/spectrogram/2018_Feb/4cf2fc4a9b1348e30489051501405c49.png)
Input File: 01 There Lies Already the Shadow of Annihilation.mp3
Channels : 2
Sample Rate : 44100
Precision : 16-bit
Duration : 00:00:00.12 = 5072 samples = 8.62585 CDDA sectors
File Size : 4.65M
Bit Rate : 324M
Sample Encoding: MPEG audio (layer I, II or III)
Comments :
Title=There Lies Already the Shadow of Annihilation
Artist=Eigenlicht
Album=Self-Annihilating Consciousness
Tracknumber=1/5
Year=2018
Genre=Black Metal



Register


Go to the top of the page
  Insert nick Quick quote
+Quote Post
 
Start new topic
Replies (1 - 2)
post Feb 17 2018, 09:58:49
Post #2

Аннигилятор пивА
Group Icon
Group: V.I.P
Posts: 52,360
Releases: 16550
From: Koenigsberg - TILZIT
On Forums: 15 years 3 weeks
Thanks: 367723 time(s)
Russian Federation


MIRROR
Register


Go to the top of the page
  Insert nick Quick quote
+Quote Post
post Dec 31 2020, 19:46:49
Post #3

Правь статус, ####!111
**************
Group: Металариец
Posts: 4,800
Releases: 1472
From: Brazil
On Forums: 9 years 4 months
Thanks: 55046 time(s)
Brazil


Register

mp3@CBR320kbps


Thanks:
Go to the top of the page
  Insert nick Quick quote
+Quote Post

Reply to this topicStart new topic
2 User(s) are reading this topic (2 Guests and 0 Anonymous Users)
0 Members:

 



- Lo-Fi Version Support form
Copyrights and abuse reports form
Time is now: 23rd June 2021 - 19:17:09