Welcome Guest ( Log In | Register )

Объявления

* gmail.com упорно продолжает считать почту с нас "unsolicited" и отбивает в том числе и письма активации, поэтому просьба использовать альтернативные почтовые ящики.
------------
* gmail.com continues reject all mail from us as "unsolicited" (activation mails too) therefore please use alternate mail servers.
> Metalriser - Demise (2017), Thrash Metal
post Feb 17 2018, 17:27:55
Post #1

Правь статус, ####!111
**************
Group: Металариец
Posts: 35,938
Releases: 26782
From: Г.Харьков
On Forums: 12 years 2 weeks
Thanks: 580874 time(s)
Ukraine


(IMG:https://metalarea.org/images/audiocovers/2018_Feb/acov_tid302126_thumb.jpg)

*Artist: Metalriser
*Album: Demise
*Year: 2017
*Genre: Thrash Metal
*Country: United States (IMG:https://metalarea.org/forum/style_images/flags/United%20States.png)
*Format: mp3@CBR320kbps
*Size: 100MB

Tracklist:
1. Downfall 04:21
2. Out of Control 05:04
3. Hypocrite 04:22
4. Vengeance 04:10
5. A New Beginning 04:25
6. Demise 04:39
7. Hell's Gate 05:27
8. Ashes of the Days 06:36
9. D.I.Y. 04:45
******************************
Total playing time: 43:49




Extended info
Joel Estrada Guitars (rhythm), Vocals
Kevin Ortiz Drums
Arturo Leyva Bass
Raymond Valdez Guitars (lead)


Technical info
(IMG:https://metalarea.org/images/spectrogram/2018_Feb/acebeb9622330dedd31b1727384164d0.png)
Input File: 02 Out of Control.mp3
Channels : 2
Sample Rate : 44100
Precision : 16-bit
Duration : 00:05:04.28 = 13418572 samples = 22820.7 CDDA sectors
File Size : 12.2M
Bit Rate : 320k
Sample Encoding: MPEG audio (layer I, II or III)
Comments :
Title=Out of Control
Artist=Metalriser
Album=Demise
Tracknumber=2
Year=2017



Register


Go to the top of the page
  Insert nick Quick quote
+Quote Post
 
Start new topic
Replies (1 - 5)
post Feb 17 2018, 19:48:41
Post #2

Правь статус, ####!111
**************
Group: Металариец
Posts: 35,938
Releases: 26782
From: Г.Харьков
On Forums: 12 years 2 weeks
Thanks: 580874 time(s)
Ukraine


Register


Go to the top of the page
  Insert nick Quick quote
+Quote Post
post Feb 18 2018, 10:04:17
Post #3

Отставший от мерседеса
**********
Group: Металариец
Posts: 1,200
Releases: 271
From: Ukraine
On Forums: 15 years 2 months
Thanks: 2436 time(s)
Ukraine


Забираю однозначно..они бы средние песни выставили наперед)
Go to the top of the page
  Insert nick Quick quote
+Quote Post
post Feb 18 2018, 18:45:44
Post #4

Четыре Литра
****
Group: Металариец
Posts: 312
Releases: 36
From: Белгород, Екатеринбург, Харьков
On Forums: 14 years 8 months
Thanks: 519 time(s)
Russian Federation


Классный альбом от техасских мужиков.
Go to the top of the page
  Insert nick Quick quote
+Quote Post
post Mar 17 2018, 16:27:24
Post #5

South Of Heaven /адепт ВУДУ
**************
Group: Металариец
Posts: 13,960
Releases: 9
On Forums: 14 years 1 month
Thanks: 5688 time(s)
Unknown


Дебютник, толковый новодел!
Go to the top of the page
  Insert nick Quick quote
+Quote Post
post May 3 2019, 19:21:00
Post #6

Black is beautiful
***********
Group: Металариец
Posts: 1,985
Releases: 4
On Forums: 12 years 2 months
Thanks: 445 time(s)
Unknown


(IMG:style_emoticons/default/banana.gif) (IMG:style_emoticons/default/banana.gif)


Thanks:
Go to the top of the page
  Insert nick Quick quote
+Quote Post

Reply to this topicStart new topic
2 User(s) are reading this topic (2 Guests and 0 Anonymous Users)
0 Members:

 



- Lo-Fi Version Support form
Copyrights and abuse reports form
Time is now: 24th May 2024 - 21:04:36