Welcome Guest ( Log In | Register )

Объявления

* gmail.com упорно продолжает считать почту с нас "unsolicited" и отбивает в том числе и письма активации, поэтому просьба использовать альтернативные почтовые ящики.
------------
* gmail.com continues reject all mail from us as "unsolicited" (activation mails too) therefore please use alternate mail servers.
> Blame - Almanac [ep] (2018), Technical Death Metal
post Feb 18 2018, 10:26:53
Post #1

Правь статус, ####!111
**************
Group: Металариец
Posts: 35,666
Releases: 26550
From: Г.Харьков
On Forums: 11 years 11 months
Thanks: 574130 time(s)
Ukraine


(IMG:https://metalarea.org/images/audiocovers/2018_Feb/acov_tid302150_thumb.jpg)

*Artist: Blame
*Album: Almanac [ep]
*Year: 2018
*Genre: Technical Death Metal
*Country: Ukraine (IMG:https://metalarea.org/forum/style_images/flags/Ukraine.png)
*Format: mp3@CBR320kbps
*Size: 46MB

Tracklist:
1. War 02:35
2. Chalice 03:19
3. Eternity 02:18
4. Almanac 03:10
5. Desires 02:51
6. Gaia 02:18
7. Victory 02:52
******************************
Total playing time: 19:23


Preview 2

Extended info
GooglPlay Rip


Technical info
(IMG:https://metalarea.org/images/spectrogram/2018_Feb/e822d95fd8b1188b030a52041f45e17f.png)
Input File: 02 - Chalice.mp3
Channels : 2
Sample Rate : 44100
Precision : 16-bit
Duration : 00:03:19.31 = 8789571 samples = 14948.2 CDDA sectors
File Size : 8.13M
Bit Rate : 326k
Sample Encoding: MPEG audio (layer I, II or III)
Comments :
Title=Chalice
Artist=Blame
Album=Almanac
Tracknumber=02/07
Year=2018
Genre=Technical Death Metal



Register


Go to the top of the page
  Insert nick Quick quote
+Quote Post
 
Start new topic
Replies (1 - 3)
post Feb 18 2018, 11:51:33
Post #2

Аннигилятор пивА
Group Icon
Group: V.I.P
Posts: 52,563
Releases: 16538
From: Koenigsberg - TILZIT
On Forums: 17 years 10 months
Thanks: 371848 time(s)
Russian Federation


напористый дэткор, техникал врядли


Thanks:
(1) Луч,
Go to the top of the page
  Insert nick Quick quote
+Quote Post
post May 5 2018, 16:29:53
Post #3

Group: Подсевший
Posts: 28
Releases: 0
On Forums: 14 years 3 months
Thanks: 1 time(s)
Ukraine


спасибо
есть возможность перезалить 2014 ?
Go to the top of the page
  Insert nick Quick quote
+Quote Post
post May 5 2019, 19:19:49
Post #4

Black is beautiful
***********
Group: Металариец
Posts: 1,981
Releases: 4
On Forums: 12 years 1 month
Thanks: 445 time(s)
Unknown


From the web:
Register


Thanks:
(1) yashidza,
Go to the top of the page
  Insert nick Quick quote
+Quote Post

Reply to this topicStart new topic
1 User(s) are reading this topic (1 Guests and 0 Anonymous Users)
0 Members:

 



- Lo-Fi Version Support form
Copyrights and abuse reports form
Time is now: 25th April 2024 - 16:28:59