Welcome Guest ( Log In | Register )

> Mortify - Mortuary Remains (2017), Old School Death Metal
post Feb 19 2018, 06:28:58
Post #1

Правь статус, ####!111
**************
Group: Металариец
Posts: 35,546
Releases: 26462
From: Г.Харьков
On Forums: 11 years 11 months
Thanks: 571920 time(s)
Ukraine


(IMG:https://metalarea.org/images/audiocovers/2018_Feb/acov_tid302169_thumb.jpg)

*Artist: Mortify
*Album: Mortuary Remains
*Year: 2017
*Genre: Old School Death Metal
*Country: Chile (IMG:https://metalarea.org/forum/style_images/flags/Chile.png)
*Format: mp3@CBR192kbps
*Size: 58MB

Tracklist:
1. Intro 01:22 instrumental
2. Perception Atrophy 04:25
3. Dawn of Lies 03:22
4. Inner Torment 03:40
5. Meadows of Sorrow 01:38 instrumental
6. Mortuary Remains 04:38
7. Silent Existence 04:20
8. Out of the Conscious 02:39 instrumental
9. Traces of Disease 04:23
10. Funeral Shades 04:55
11. Mentally Blind 03:56
12. Succubus 03:51
******************************
Total playing time: 43:09




Extended info
Cristian Tilleria Drums
Cristian Fuentes Guitars (lead), Vocals
Jorge Hernández Bass
Daniel Vargas Guitars (lead)



Technical info
(IMG:https://metalarea.org/images/spectrogram/2018_Feb/2340bb93760fd1c3049f2e148b897b7d.png)
Input File: 02 - Perception Atrophy.mp3
Channels : 2
Sample Rate : 44100
Precision : 16-bit
Duration : 00:04:23.42 = 11616822 samples = 19756.5 CDDA sectors
File Size : 6.32M
Bit Rate : 192k
Sample Encoding: MPEG audio (layer I, II or III)
Comments :
Title=Perception Atrophy
Artist=Mortify
Album=Mortuary Remains
Tracknumber=2
Year=2017
Genre=Death Metal



Register


Go to the top of the page
  Insert nick Quick quote
+Quote Post
 
Start new topic
Replies (1 - 8)
post Feb 19 2018, 13:05:05
Post #2

Crush! Kill! Destroy!
**************
Group: Металариец
Posts: 5,785
Releases: 15
From: Kaliningrad
On Forums: 16 years 4 months
Thanks: 5461 time(s)
Russian Federation


Очешуительный альбом! Стронги рекоммендеd, ема!


Thanks:
(1) samokot,
Go to the top of the page
  Insert nick Quick quote
+Quote Post
post Feb 19 2018, 13:06:20
Post #3

Правь статус, ####!111
**************
Group: Металариец
Posts: 55,753
Releases: 1186
On Forums: 14 years 10 months
Thanks: 54455 time(s)
Russian Federation


Уровень Рогга или лучше?
Go to the top of the page
  Insert nick Quick quote
+Quote Post
post Feb 19 2018, 13:23:42
Post #4

Crush! Kill! Destroy!
**************
Group: Металариец
Posts: 5,785
Releases: 15
From: Kaliningrad
On Forums: 16 years 4 months
Thanks: 5461 time(s)
Russian Federation


QUOTE(vosmidesijatye @ Feb 19 2018, 14:06:20) *
Уровень Рогга или лучше?


Во-первых - разная музыка, сравнивать длинное и зеленое не всегда получается, во вторых - рогга ни фига не уровень (ятд), ибо флуктуация в качестве его творчества многостаночного имеет амплитуду волн знаменитого цунами в 2004/2005 году.


Thanks:
Go to the top of the page
  Insert nick Quick quote
+Quote Post
post Sep 10 2019, 16:23:02
Post #5

Правь статус, ####!111
**************
Group: Металариец
Posts: 35,546
Releases: 26462
From: Г.Харьков
On Forums: 11 years 11 months
Thanks: 571920 time(s)
Ukraine


FLAC (Tracks) 343 mb
Register


Go to the top of the page
  Insert nick Quick quote
+Quote Post
post Sep 10 2019, 16:25:43
Post #6

спасибо сыну за пельмени
**************
Group: Металариец
Posts: 2,790
Releases: 0
From: Україна
On Forums: 15 years 3 months
Thanks: 2504 time(s)
Ukraine


а 320 найдётся у кого ни будь?


Thanks:
Go to the top of the page
  Insert nick Quick quote
+Quote Post
post Sep 10 2019, 16:42:01
Post #7

Правь статус, ####!111
**************
Group: Металариец
Posts: 35,546
Releases: 26462
From: Г.Харьков
On Forums: 11 years 11 months
Thanks: 571920 time(s)
Ukraine


ЦИТАТА(troll_swamp @ 10th September 2019 - 16:25:43) *
а 320 найдётся у кого ни будь?

погодь минут 30.Запилю.
Go to the top of the page
  Insert nick Quick quote
+Quote Post
post Sep 10 2019, 17:06:07
Post #8

спасибо сыну за пельмени
**************
Group: Металариец
Posts: 2,790
Releases: 0
From: Україна
On Forums: 15 years 3 months
Thanks: 2504 time(s)
Ukraine


ЦИТАТА(Samaritianin @ Sep 10 2019, 18:42:01) *
погодь минут 30.Запилю.

конечно, без проблем, спасибо, как удобно так и делайте. (IMG:style_emoticons/default/9.gif) (IMG:style_emoticons/default/9.gif) (IMG:style_emoticons/default/9.gif)
Go to the top of the page
  Insert nick Quick quote
+Quote Post
post Sep 10 2019, 17:19:56
Post #9

Правь статус, ####!111
**************
Group: Металариец
Posts: 35,546
Releases: 26462
From: Г.Харьков
On Forums: 11 years 11 months
Thanks: 571920 time(s)
Ukraine


Register

320 100 mb
Register


Go to the top of the page
  Insert nick Quick quote
+Quote Post

Reply to this topicStart new topic
1 User(s) are reading this topic (1 Guests and 0 Anonymous Users)
0 Members:

 



- Lo-Fi Version Support form
Copyrights and abuse reports form
Time is now: 15th April 2024 - 03:32:47