Welcome Guest ( Log In | Register )

> Kostnatění - Konec Je Všude [demo] (2018), Black Metal
post Feb 20 2018, 02:55:48
Post #1

Правь статус, ####!111
**************
Group: Металариец
Posts: 3,924
Releases: 978
From: Brazil
On Forums: 7 years 8 months
Thanks: 36356 time(s)
Brazil


(IMG:http://metalarea.org/images/audiocovers/2018_Feb/acov_tid302236_thumb.png)

*Artist: Kostnatěnн
*Album: Konec Je Všude [demo]
*Year: 2018
*Genre: Black Metal
*Country: Czech Republic (IMG:http://metalarea.org/forum/style_images/flags/Czech%20Republic.png)
*Format: mp3@CBR320kbps
*Size: 49MB

Tracklist:
1. Ukrбst jedinй ticho
2. Vyschnutн v poušti
3. Zlato a střнbro
******************************
Total playing time: 19:53



Technical info
(IMG:http://metalarea.org/images/spectrogram/2018_Feb/48fc0844c375ce17e01fbbfaa319a28f.png)
Input File: 01 Ukrбst jedinй ticho.mp3
Channels : 2
Sample Rate : 44100
Precision : 16-bit
Duration : 00:06:19.02 = 16714738 samples = 28426.4 CDDA sectors
File Size : 15.3M
Bit Rate : 323k
Sample Encoding: MPEG audio (layer I, II or III)
Comments :
Title=UkrГЎst jedinГ© ticho
Artist=KostnatД›nГ­
Album=Konec je vЕЎude
Tracknumber=1
Year=2018



Register

Register


This post has been edited by Borderline1991: Sep 29 2019, 14:35:49


Go to the top of the page
  Insert nick Quick quote
+Quote Post
 
Start new topic
Replies (1 - 1)
post Jun 9 2019, 20:44:31
Post #2

Четыре Литра
****
Group: Металариец
Posts: 302
Releases: 0
On Forums: 4 months 1 week
Thanks: 171 time(s)
Russian Federation


Последнее время очень часто слушаю этот отличнейший релиз. Весьма специфическая работа, которая стилистически вроде и не выходит за рамки блэка, но звучит необычно для стиля из-за этакой сумбурной подачи материала и достаточно шизоидных настроений, которые от сравнительно более позитивных постепенно перетекают к депрессивным. Аналогии найти непросто. Зачастую сравнивают это с Odz Manouk, что оправдано, но не полностью, ибо последний более грязный, мрачный и трагичный, а сабж звучит чище и в то же время более поехавше в хорошем смысле.
Go to the top of the page
  Insert nick Quick quote
+Quote Post

Reply to this topicStart new topic
2 User(s) are reading this topic (2 Guests and 0 Anonymous Users)
0 Members:

 



- Lo-Fi Version Support form
Copyrights and abuse reports form
Time is now: 17th October 2019 - 18:37:20