Welcome Guest ( Log In | Register )

 
Reply to this topicStart new topic
> Thy Antichrist - Wrath Of The Beast (2018), Black Metal (D)
post Feb 22 2018, 15:18:55
Post #1

Serial Uploader
Group Icon
Group: V.I.P
Posts: 42,048
Releases: 40118
From: Lithuania
On Forums: 15 years 8 months
Thanks: 511416 time(s)
Lithuania


(IMG:https://metalarea.org/images/audiocovers/2018_Feb/acov_tid302370_thumb.jpg)

*Artist: Thy Antichrist
*Album: Wrath Of The Beast
*Year: 2018
*Genre: Black Metal
*Country: Colombia (IMG:https://metalarea.org/forum/style_images/flags/Colombia.png)
*Format: mp3@CBR320kbps
*Size: 88MB

Tracklist:
01. Desolation 04:45
02. Metal To The Bone 04:14
03. The Great Beast 04:07
04. A World Burnt To Ashes 04:30
05. No Place Like Hell 04:57
06. Nightmares 04:25
07. Crown Of Lies 03:27
08. Skeletons Of Disgrace 03:26
09. Walking Through The Soul 05:42
10. The Last Breath 01:58
******************************
Total playing time: 41:31

(IMG:https://metalarea.org/images/myspace.png)




Technical info
(IMG:https://metalarea.org/images/spectrogram/2018_Feb/dea71f0cd88ffd5065084fec569bcb65.png)
Input File: 02. Metal to the Bone.mp3
Channels : 2
Sample Rate : 44100
Precision : 16-bit
Duration : 00:04:14.72 = 11233152 samples = 19104 CDDA sectors
File Size : 10.3M
Bit Rate : 323k
Sample Encoding: MPEG audio (layer I, II or III)
Comments :
Title=Metal to the Bone
Artist=Thy Antichrist
Album=Wrath of the Beast
Tracknumber=2/10
Year=2018
Genre=17
Discnumber=1/1



Register


Go to the top of the page
  Insert nick Quick quote
+Quote Post
post Feb 22 2018, 15:45:19
Post #2

Два Литра
**
Group: Завсегдатай
Posts: 187
Releases: 0
On Forums: 9 years 11 months
Thanks: 58 time(s)
Unknown


Mirror?
Go to the top of the page
  Insert nick Quick quote
+Quote Post
post Feb 22 2018, 15:53:15
Post #3

Welder - master Wunderkerzen
***********
Group: Металариец
Posts: 1,613
Releases: 47
On Forums: 15 years 10 months
Thanks: 4562 time(s)
Russian Federation


Где ж они были?
Go to the top of the page
  Insert nick Quick quote
+Quote Post
post Feb 22 2018, 15:53:18
Post #4

Шесть Литров
******
Group: Металариец
Posts: 644
Releases: 1
On Forums: 16 years 9 months
Thanks: 145 time(s)
Russian Federation


Ну и бяка неслушабельная
Go to the top of the page
  Insert nick Quick quote
+Quote Post
post Feb 22 2018, 18:11:11
Post #5

MDM-Thrash Metal
**************
Group: Металариец
Posts: 12,269
Releases: 1716
From: Одесса
On Forums: 16 years 6 months
Thanks: 39954 time(s)
Ukraine


Register


Go to the top of the page
  Insert nick Quick quote
+Quote Post
post May 20 2020, 20:36:25
Post #6

Group: Подсевший
Posts: 24
Releases: 0
On Forums: 13 years 3 months
Thanks: 3 time(s)
Unknown


All links are offline. Can someone reupload it?
Go to the top of the page
  Insert nick Quick quote
+Quote Post
post May 20 2020, 20:59:30
Post #7

Правь статус, ####!111
**************
Group: Металариец
Posts: 6,135
Releases: 0
On Forums: 5 years 8 months
Thanks: 19603 time(s)
Russian Federation


95 mb/320 kbps
Register


Go to the top of the page
  Insert nick Quick quote
+Quote Post
post May 23 2022, 12:28:01
Post #8

Group: Подсевший
Posts: 14
Releases: 0
On Forums: 2 years 2 months
Thanks: 0 time(s)
Russian Federation


А Flac у вас не найдётся?
Go to the top of the page
  Insert nick Quick quote
+Quote Post

Reply to this topicStart new topic
1 User(s) are reading this topic (1 Guests and 0 Anonymous Users)
0 Members:

 



- Lo-Fi Version Support form
Copyrights and abuse reports form
Time is now: 3rd March 2024 - 10:31:47