Welcome Guest ( Log In | Register )

> Iron Curtain - The Road [ep] (2017), Sludge/Grindcore (D7)
post Mar 15 2018, 17:12:36
Post #1

Serial Uploader
Group Icon
Group: V.I.P
Posts: 37,608
Releases: 35780
From: Lithuania
On Forums: 13 years 1 month
Thanks: 433174 time(s)
Lithuania


(IMG:https://metalarea.org/images/audiocovers/2018_Mar/acov_tid303320_thumb.jpg)

*Artist: Iron Curtain
*Album: The Road [ep]
*Year: 2017
*Genre: Sludge/Grindcore
*Country: United States (IMG:https://metalarea.org/forum/style_images/flags/United%20States.png)
*Format: mp3@CBR320kbps
*Size: 24MB

Tracklist:
01. Rope 03:14
02. Regress 01:00
03. Pillow Talk 01:33
04. Lukewarm 01:54
05. The Mountain 03:40
******************************
Total playing time: 11:21




Technical info
(IMG:https://metalarea.org/images/spectrogram/2018_Mar/a0b897b9b78907db7a2e657290961419.png)
Input File: 02-iron_curtain-regress-f7551ca1.mp3
Channels : 2
Sample Rate : 44100
Precision : 16-bit
Duration : 00:01:00.95 = 2687983 samples = 4571.4 CDDA sectors
File Size : 2.44M
Bit Rate : 320k
Sample Encoding: MPEG audio (layer I, II or III)
Comments :
Title=Regress
Artist=Iron Curtain
Album=The Road
Tracknumber=2/5
Year=2017
Genre=9



Register


Go to the top of the page
  Insert nick Quick quote
+Quote Post
 
Start new topic
Replies (1 - 1)
post Jul 22 2021, 16:10:04
Post #2

Три Литра
***
Group: Завсегдатай
Posts: 283
Releases: 0
From: Russian Federation
On Forums: 14 years 10 months
Thanks: 19 time(s)
Russian Federation


from the web:
Register
Go to the top of the page
  Insert nick Quick quote
+Quote Post

Reply to this topicStart new topic
2 User(s) are reading this topic (2 Guests and 0 Anonymous Users)
0 Members:

 



- Lo-Fi Version Support form
Copyrights and abuse reports form
Time is now: 27th July 2021 - 19:29:31