Welcome Guest ( Log In | Register )

> Negative Self - Control The Fear (2018), Heavy/Thrash Metal/Crossover
post Mar 15 2018, 17:18:02
Post #1

Правь статус, ####!111
**************
Group: Металариец
Posts: 27,654
Releases: 20089
From: Г.Харьков
On Forums: 9 years 5 months
Thanks: 406477 time(s)
Unknown


(IMG:https://metalarea.org/images/audiocovers/2018_Mar/acov_tid303321_thumb.jpg)

*Artist: Negative Self
*Album: Control The Fear
*Year: 2018
*Genre: Heavy/Thrash Metal/Crossover
*Country: Sweden (IMG:https://metalarea.org/forum/style_images/flags/Sweden.png)
*Format: mp3@CBR320kbps
*Size: 94MB

Tracklist:
1. Underneath the Wave 04:58
2. In My Head 04:02
3. Drawing Blood 03:58
4. A New Beginning 06:04
5. Never Leave 03:33
6. Answers 04:24
7. No Common Ground 03:46
8. Control the Fear 04:40
9. Curse of Life 03:39
10. The Pain Returns 06:05
******************************
Total playing time: 45:09



Extended info
Frank Guldstrand Bass
See also: ex-Undergång, Disprocess
Tor Nyman Guitars
See also: ex-Oppression, ex-Autopsy Torment (live)
Andreas Sandberg Vocals (lead), Drums
See also: Ouijabeard, ex-Dr. Living Dead!
Viktor Svensson Guitars (2015-present)
Jakob Strand Drums (2016-present)
See also: ex-Oppression, ex-One Inch Giant


Technical info
(IMG:https://metalarea.org/images/spectrogram/2018_Mar/67ff9ced8d934a3b747021ebcd1e3e81.png)
Input File: 2 In My Head.mp3
Channels : 2
Sample Rate : 44100
Precision : 16-bit
Duration : 00:04:02.18 = 10680138 samples = 18163.5 CDDA sectors
File Size : 9.74M
Bit Rate : 322k
Sample Encoding: MPEG audio (layer I, II or III)
Comments :
Title=In My Head
Artist=Negative Self
Album=Control the Fear
Tracknumber=2/10
Year=2018
Genre=17
Discnumber=1/1



Register


Go to the top of the page
  Insert nick Quick quote
+Quote Post
 
Start new topic
Replies (1 - 3)
post Mar 15 2018, 18:34:18
Post #2

Правь статус, ####!111
**************
Group: Металариец
Posts: 27,654
Releases: 20089
From: Г.Харьков
On Forums: 9 years 5 months
Thanks: 406477 time(s)
Unknown


Register


Register


Go to the top of the page
  Insert nick Quick quote
+Quote Post
post Mar 15 2018, 21:36:20
Post #3

MDM-Thrash Metal
**************
Group: Металариец
Posts: 10,598
Releases: 1325
From: Одесса
On Forums: 14 years 2 months
Thanks: 32052 time(s)
Ukraine




Thanks:
Go to the top of the page
  Insert nick Quick quote
+Quote Post
post Oct 14 2021, 10:59:45
Post #4

Шесть Литров
******
Group: Металариец
Posts: 516
Releases: 99
On Forums: 2 years 4 months
Thanks: 1685 time(s)
Russian Federation


mp3@CBR320kbps

Register
Go to the top of the page
  Insert nick Quick quote
+Quote Post

Reply to this topicStart new topic
1 User(s) are reading this topic (1 Guests and 0 Anonymous Users)
0 Members:

 



- Lo-Fi Version Support form
Copyrights and abuse reports form
Time is now: 16th October 2021 - 04:29:26