Welcome Guest ( Log In | Register )

> Deep River Acolytes - The Hour Of Trial (2018), Occult Doom/Heavy Metal
post Mar 18 2018, 12:39:29
Post #1

Аннигилятор пивА
Group Icon
Group: V.I.P
Posts: 52,360
Releases: 16550
From: Koenigsberg - TILZIT
On Forums: 15 years 3 weeks
Thanks: 367696 time(s)
Russian Federation


(IMG:https://metalarea.org/images/audiocovers/2018_Mar/acov_tid303450_thumb.jpg)

*Artist: Deep River Acolytes
*Album: The Hour Of Trial
*Year: 2018
*Genre: Occult Doom/Heavy Metal
*Country: Finland (IMG:https://metalarea.org/forum/style_images/flags/Finland.png)
*Format: mp3@CBR320kbps
*Size: 111MB

Tracklist:
1. The Unknown Grandeur 04:56
2. Deviltrance 04:10
3. Temples Below 04:35
4. Wake at Sea 05:28
5. Cages 05:25
6. The Uninvited 04:34
7. Grave Devotion 05:50
8. Salt of This Earth 04:01
9. The Undertow 08:09
******************************
Total playing time: 47:08




Extended info
AOR (Antichrist Oriented Rock) from Oulu, Finland. Formerly known as 'Deliverance'.
Somebody has mentioned: Mercyful Fate, Danzig, Trouble, Sabbath, Maiden, Paradise Lost, Babylon Whores, etc.


Technical info
(IMG:https://metalarea.org/images/spectrogram/2018_Mar/bc7a30faa1287a8598acdca7da57200b.png)
Input File: 02 - Deviltrance.mp3
Channels : 2
Sample Rate : 44100
Precision : 16-bit
Duration : 00:04:10.88 = 11063808 samples = 18816 CDDA sectors
File Size : 10.1M
Bit Rate : 324k
Sample Encoding: MPEG audio (layer I, II or III)
Comments :
Title=Deviltrance
Artist=Deep River Acolytes
Album=The Hour of Trial
Tracknumber=2/9
Year=2018
Genre=Heavy/Doom Metal



Register


Go to the top of the page
  Insert nick Quick quote
+Quote Post
 
Start new topic
Replies (1 - 1)
post Mar 18 2018, 13:22:20
Post #2

Аннигилятор пивА
Group Icon
Group: V.I.P
Posts: 52,360
Releases: 16550
From: Koenigsberg - TILZIT
On Forums: 15 years 3 weeks
Thanks: 367696 time(s)
Russian Federation


MIRROR
Register





Go to the top of the page
  Insert nick Quick quote
+Quote Post

Reply to this topicStart new topic
1 User(s) are reading this topic (1 Guests and 0 Anonymous Users)
0 Members:

 



- Lo-Fi Version Support form
Copyrights and abuse reports form
Time is now: 19th June 2021 - 10:18:48