Welcome Guest ( Log In | Register )

> Rawfoil - Evolution In Action (2018), Old School Thrash/Speed Metal
post Mar 29 2018, 15:35:40
Post #1

Правь статус, ####!111
**************
Group: Металариец
Posts: 27,654
Releases: 20089
From: Г.Харьков
On Forums: 9 years 5 months
Thanks: 406476 time(s)
Unknown


(IMG:https://metalarea.org/images/audiocovers/2018_Mar/acov_tid303999_thumb.jpg)

*Artist: Rawfoil
*Album: Evolution In Action
*Year: 2018
*Genre: Old School Thrash/Speed Metal
*Country: Italy (IMG:https://metalarea.org/forum/style_images/flags/Italy.png)
*Format: mp3@CBR320kbps
*Size: 77MB

Tracklist:
1. Evolution in Action (Darwin Awards) 05:27
2. Josey Wales 05:04
3. Broken Black Stone 03:45
4. Fail 04:05
5. Demons Inside 05:13
6. Reflect the Death 05:03
7. Circle of Hate 04:34
8. Wrath of War 04:33
******************************
Total playing time: 37:44



Extended info
Lorenzo Riboldi Bass, Vocals (backing) (2009-present)
Christian Comi Guitars (2009-present)
Francesco Ruvolo Vocals (2009-present)
Sborradamatti Drums (2015-present)
See also: Theory of Chaos
Giacomo Cappellin Guitars, Vocals (backing) (2015-present)


Technical info
(IMG:https://metalarea.org/images/spectrogram/2018_Mar/efe6754136785b0ba724c4b35292fd69.png)
Input File: 02-rawfoil-josey_wales-4fb1be0a.mp3
Channels : 2
Sample Rate : 44100
Precision : 16-bit
Duration : 00:05:04.57 = 13431405 samples = 22842.5 CDDA sectors
File Size : 12.2M
Bit Rate : 320k
Sample Encoding: MPEG audio (layer I, II or III)
Comments :
Title=Josey Wales
Artist=RawFoil
Album=Evolution in Action
Tracknumber=2/8
Year=2018
Genre=9



Register


Go to the top of the page
  Insert nick Quick quote
+Quote Post
 
Start new topic
Replies (1 - 3)
post Mar 29 2018, 18:33:49
Post #2

Правь статус, ####!111
**************
Group: Металариец
Posts: 27,654
Releases: 20089
From: Г.Харьков
On Forums: 9 years 5 months
Thanks: 406476 time(s)
Unknown


Register


Go to the top of the page
  Insert nick Quick quote
+Quote Post
post Apr 14 2018, 21:11:34
Post #3

Аннигилятор пивА
Group Icon
Group: V.I.P
Posts: 52,360
Releases: 16550
From: Koenigsberg - TILZIT
On Forums: 15 years 4 months
Thanks: 368299 time(s)
Russian Federation


Я не эксперт, но че это за модерновые жалостиво-противные чистоголосые распевки-припевы? группа явно не чужда модерн грув и хэви отступлениям
Go to the top of the page
  Insert nick Quick quote
+Quote Post
post Oct 13 2021, 15:54:30
Post #4

Правь статус, ####!111
**************
Group: Металариец
Posts: 5,115
Releases: 468
From: MoscoW
On Forums: 14 years 10 months
Thanks: 7543 time(s)
Russian Federation


Можно скачать Б/П в 320kbps!!!:
RAWFOIL:

(IMG:style_emoticons/default/metaler.gif)
Go to the top of the page
  Insert nick Quick quote
+Quote Post

Reply to this topicStart new topic
2 User(s) are reading this topic (2 Guests and 0 Anonymous Users)
0 Members:

 



- Lo-Fi Version Support form
Copyrights and abuse reports form
Time is now: 16th October 2021 - 03:18:23